<?xml version="1.0" standalone="no"?>
<!DOCTYPE svg PUBLIC "-//W3C//DTD SVG 1.1//EN" "http://www.w3.org/Graphics/SVG/1.1/DTD/svg11.dtd" >
<svg xmlns="http://www.w3.org/2000/svg">
<metadata>Created by Icons8</metadata>
<defs>
  <font id="fa-brands-400" horiz-adv-x="1024">
    <font-face font-family="fa-brands-400"
      units-per-em="1024" ascent="896"
      descent="128"
      font-weight="400" />
    <missing-glyph horiz-adv-x="0" />
    <glyph glyph-name="500px"
      unicode="&#xF26E;"
      horiz-adv-x="1024" d="M838.375008 485.375008C732 485.375008 669.124992 384.5 665.124992 384.5C661.124992 384.5 598.624992 485.375008 491.375008 485.375008C384.250016 485.375008 353.624992 384.5 350.375008 384.5C347.124992 384.5 322.5 467.249984 229.875008 467.249984C154.875008 467.249984 144.375008 432.749984 138 432.749984C138 432.749984 143.624992 469.749984 154.875008 535.624992L339.875008 535.624992L339.875008 608L89.624992 608L47.375008 365.624992L128.375008 365.624992C128.375008 365.624992 146.875008 399.749984 196 399.749984C245.124992 399.749984 275 362 275 319.375008C275 276.875008 242 230.2499840000001 196 230.2499840000001C150.124992 230.2499840000001 123.5 269.624992 123.5 296.875008C85.624992 296.875008 33.250016 296.875008 33.250016 296.875008C33.250016 272.7499840000001 52.624992 160 196 160C312.875008 160 350.375008 247.124992 350.375008 257.5C350.375008 248.7499840000001 395.5 160 491.5 160C602.750016 160 658.750016 257.5 665.124992 257.5C671.624992 257.5 737.750016 160 838.5 160C939.250016 160 990.875008 248.7499840000001 990.875008 323.5C990.750016 398.249984 944.875008 485.375008 838.375008 485.375008zM611.375008 322L611.250016 322C610.624992 321.124992 549 246.375008 491.875008 246.375008C434.5 246.375008 423.875008 303.5 423.875008 322C423.875008 340.5 434.5 397.624992 491.875008 397.624992C549 397.624992 610.624992 322.875008 611.250016 322zM907.124992 322C907.124992 303.5 896.5 246.2499840000001 839.124992 246.2499840000001C782.124992 246.2499840000001 720.5 321 719.750016 321.875008L719.750016 322C720.5 322.875008 782.124992 397.624992 839.124992 397.624992C896.5 397.624992 907.124992 340.375008 907.124992 322z" />
    <glyph glyph-name="accessible-icon"
      unicode="&#xF368;"
      horiz-adv-x="1024" d="M768 768C715.375008 768 672 724.624992 672 672C672 619.375008 715.375008 576 768 576C820.624992 576 864 619.375008 864 672C864 724.624992 820.624992 768 768 768zM768 704C786 704 800 690 800 672C800 654 786 640 768 640C750 640 736 654 736 672C736 690 750 704 768 704zM594 607L479 594C460.750016 591.875008 445.5 581 435 566L434 567L433 565L359 467L409 429L485 528L487 530L557 538L503 415C430.875008 412.124992 366.875008 375.624992 328 320L417 320C443.624992 339.875008 476.375008 352 512 352C600.250016 352 672 280.2499840000001 672 192C672 103.749984 600.250016 32 512 32C459.875008 32 414.250016 57.375008 385 96L310 96C346 20.5 422.875008 -32 512 -32C635.5 -32 736 68.5 736 192C736 202.875008 734.5 213.5 733 224L796 224L747 40L809 24L862 223L864 230L863 238C856.624992 267.2499840000001 829.875008 288 800 288L714 288C704.624992 307.624992 692.375008 325 678 341L730 450L731 452L731 453C747.124992 497.624992 727.750016 547.624992 686 570L632 600L632 599C620.5 605.124992 606.875008 608.5 594 607zM623 532L656 514C670.250016 506.375008 676.5 490.124992 671 475L627 384C609.124992 394.749984 589.750016 402.5 569 408zM224 288L224 224L448 224L448 288zM128 192L128 128L544 128L544 192z" />
    <glyph glyph-name="accusoft"
      unicode="&#xF369;"
      horiz-adv-x="1024" d="M599.687488 704C582.983488 704 408.966496 703.2895008 393.062496 702.9375008C361.222496 702.9375008 338.435488 703.2675008 361.187488 677.1875008C374.051488 662.9475008 763.058496 221.337504 772.562496 210.937504C794.546496 186.2335040000001 807.077984 190.767488 823.750016 196.687488C829.029984 198.415488 1015.161504 268.982496 1018.937504 271.062496C1032.185504 277.654496 1016.275488 296.443008 1007.187488 306.875008C1003.763488 310.331008 667.151008 680.34 663.375008 684.5C647.439008 702.932 639.879488 704 599.687488 704zM430.562496 480C430.562496 480 411.353504 477.524 390.937504 456.5C376.4095040000001 442.484 6.11350016 108.253504 3.93750016 105.437504C-7.32650016 90.013504 6.53449984 94.912992 29.06249984 102.624992C30.15050016 102.624992 180.8124992 150.062496 180.8124992 150.062496C181.9004992 151.1184960000001 180.7870016 150.420992 181.8750016 151.124992C181.1710016 158.836992 180.7895008 191.0129920000001 180.4375008 193.124992C179.3495008 201.188992 183.7590016 203.676512 191.3750016 206.812512L368.5 269.375008C369.588 270.431008 509.472 379.4735040000001 512 381.937504L512 383.6874880000001L430.562496 480zM504.812512 256C499.980512 255.648 489.245504 254.573504 481.437504 251.437504C473.661504 248.301504 245.7850016 179.971488 237.6249984 177.187488C229.4650016 174.051488 219.0535008 171.607488 219.4375008 165.687488C219.8215008 161.847488 222.802 161.470496 227.25 160.062496C231.314 159.038496 715.604992 43.369504 727.124992 40.937504C752.372992 36.073504 789.457504 24.9 813.937504 38.5C817.649504 40.26 1015.109504 168.857504 1018.437504 170.937504C1026.981504 177.2095040000001 1025.453504 181.357504 1015.437504 183.437504C1011.725504 183.789504 975.763008 188.16 953.875008 192C953.875008 192 767.190496 117.477984 763.062496 115.750016C737.110496 104.581984 719.271488 120.684992 703.687488 138.124992L610.937504 241.6874880000001C602.009504 243.063488 512.972512 256.352 504.812512 256z" />
    <glyph glyph-name="acquisitions-incorporated"
      unicode="&#xF6AF;"
      horiz-adv-x="1024" d="M231.9375008 800C225.9215008 800 223.098 798.1909984 224.25 791.3750016C227.93 769.9350016 222.9055008 790.1004992000001 234.9375008 717.8124992C340.761504 717.8124992 354.795008 716.328 404.875008 717C425.419008 717.3199999999999 466.628512 711.2704992 467.812512 681.0624992C468.484512 662.5344992 465.983008 662.7410016 413.375008 539.124992C323.551008 328.276992 328.712 343.674496 301 277.562496C298.1840000000001 270.906496 295.0629984000001 269.124992 288.3750016 269.124992C274.1990016 269.444992 259.9535008 269.577504 245.9375008 268.937504C242.7695008 268.777504 237.262 266.021984 236.75 263.750016C234.286 250.789984 233.132 237.728 231.5 224L416 224L416 268.1874880000001C404.48 268.1874880000001 366.320512 267.5310080000001 363.3125120000001 272.875008C372.144512 292.8430080000001 380.668 312.5320000000001 389.5 332.5C416.7 326.004 446.479488 319.836 472.687488 313.5C478.351488 312.028 480.375008 308.6135040000001 480.375008 302.437504C480.215008 232.741504 480.527488 162.8834880000001 480.687488 93.187488C480.687488 76.611488 471.492512 62.120992 455.812512 55.624992C444.964512 51.240992 446.589504 50.117984 249.4375008 51.750016C240.6055008 51.750016 237.582 48.463488 236.75 40.687488C234.254 19.727488 231.9575008 -1.352512 228.4375008 -22.312512C227.0935008 -30.440512 230.594 -31.562496 237.25 -31.562496C543.074016 -32.522496 185.9535008 -31.562496 799.937504 -31.562496C795.777504 -7.210496 792.585504 16.143008 788.937504 39.375008C786.953504 51.919008 786.793504 51.750016 772.937504 51.750016C606.345504 51.429984 579.941504 55.68 578.437504 56C557.893504 58.752 544.047008 73.082496 543.375008 93.562496C543.215008 96.154496 543.031488 209.841984 541.687488 303.2499840000001C541.527488 310.898016 544.362496 313.645504 551.562496 315.437504C572.426496 320.301504 599.545984 325.363488 620.249984 331.1874880000001C627.418016 333.299488 631.593984 331.516 634.249984 325.5C641.769984 308.764 648.952512 292.048512 656.312512 275.312512C658.968512 269.296512 656.448992 268.1874880000001 650.624992 268.1874880000001C633.920992 268.507488 625.406496 268.312512 608.062496 268.312512L608.062496 224.437504L793.562496 224.437504C791.226496 239.861504 789.051008 253.860992 786.875008 269.124992C775.195008 269.124992 763.820512 268.449984 752.812512 269.2499840000001C715.084512 271.841984 722.226496 276.441504 612.562496 526.937504C597.874496 559.577504 565.992992 627.7804992 551.624992 671.8124992C544.296992 694.5644992 560.819488 713.048 583.187488 715C614.227488 717.752 645.768 717.578 677 718.25C711.4 718.89 745.787488 718.9024992 780.187488 719.0624992C785.371488 719.0624992 786.895008 721.3584992 787.375008 726.0624992C789.391008 741.9664992 791.886496 757.756 794.062496 773.5C795.406496 782.108 796.718496 790.8569984 798.062496 799.6249984L231.9375008 800zM506.375008 613.1875008C518.887008 609.2835008 519.566496 614.4995008000001 522.062496 613.1875008C537.582496 576.6435008000001 552.244992 515.5514880000001 567.124992 478.687488C578.132992 451.551488 588.862496 424.256 600.062496 396C597.982496 394.7200000000001 595.802496 393.586496 593.562496 392.562496C571.706496 386.226496 549.445984 380.3784960000001 527.750016 373.562496C517.766016 370.170496 506.952 370.170496 497 373.562496C474.792 380.3784960000001 452.613504 386.867008 430.437504 393.875008C427.109504 395.219008 423.8539840000001 396.770496 420.750016 398.562496C449.454016 470.530496 477.831008 541.699488 506.375008 613.1875008z" />
    <glyph glyph-name="app-net"
      unicode="&#xF170;"
      horiz-adv-x="1024" d="M512 768C300.250016 768 128 595.749984 128 384C128 172.2499840000001 300.250016 0 512 0C723.750016 0 896 172.2499840000001 896 384C896 595.749984 723.750016 768 512 768zM512 704C689.124992 704 832 561.124992 832 384C832 206.875008 689.124992 64 512 64C334.875008 64 192 206.875008 192 384C192 561.124992 334.875008 704 512 704zM512 578L301 261L352 261L401 335L623 335L673 261L724 261zM512 501L603 365L421 365z" />
    <glyph glyph-name="adobe"
      unicode="&#xF778;"
      horiz-adv-x="1024" d="M128 704L128 64L412.8125120000001 704L128 704zM611.187488 704L896 64L896 704L611.187488 704zM512 467.187488L387.187488 192L518.312512 192L569.5 64L691.187488 64L512 467.187488z" />
    <glyph glyph-name="adversal"
      unicode="&#xF36A;"
      horiz-adv-x="1024" d="M171.0624992 736C136.7264992 736 128 727.1210016 128 692.6249984L128 107.312512C128 72.4005120000001 136.7264992 64 171.0624992 64L851.124992 64C887.732992 64 896 71.826496 896 108.562496L896 690.6875008C896 727.6155008000001 887.892992 736 851.124992 736L171.0624992 736zM797.812512 669.25C802.356512 669.25 807.518496 668.674 812.062496 669.25C826.878496 670.402 832 662.8404992000001 832 648.3124992C831.84 648.0244992 831.812512 647.8504992000001 831.812512 647.5624992L832 647.5624992L832 220.5C832 212.148 830.785504 200.124992 819.937504 200.124992C801.729504 200.7009920000001 779.64 189.656512 767 208.312512C758.488 221.080512 755.501984 214.158496 748.750016 210.062496C670.382016 166.478496 560.779008 199.668992 536.875008 335.124992C527.915008 384.148992 535.811008 433.5870080000001 559.875008 481.875008C577.187008 516.947008 643.400992 593.5370015999999 759.624992 526.624992L759.624992 630.8124992C759.624992 669.2764992 759.508512 669.25 797.812512 669.25zM347.124992 554.375008C377.868992 555.403008 408.764 549.330496 439.5 536.562496C499.564 511.922496 480 449.728 480 348C483.968 310.144 473.719488 262.423488 493.687488 217.687488C496.471488 211.223488 494.231488 206.1280000000001 489.687488 202C477.367488 192.1760000000001 442.2200000000001 198.7325120000001 431.5 212.812512C428.716 216.0445120000001 428.822016 218.129504 425.750016 221.937504C420.470016 227.6655040000001 415.064512 225.1415040000001 408.3125120000001 220.437504C324.088512 167.029504 202.4184992 189.0560000000001 192.5624992 284C188.0184992 327.0080000000001 210.7209984 367.803488 250.6249984 388.187488C306.6890016 416.795488 409.156512 405.5304960000001 411.8125120000001 433.562496C413.444512 448.570496 409.042016 463.064992 395.249984 473.624992C354.898016 503.256992 295.5724992 486.416512 277.8124992 439.3125120000001C271.5084992 423.024512 264.1570016 425.364992 252.1249984 427.124992C237.8849984 429.332992 226.9009984 431.827488 219.1249984 435.187488C176.8530016 451.923488 231.6889984 516.346496 255.6249984 529.562496C285.7849984 545.2584959999999 316.3810016 553.347008 347.124992 554.375008zM681.875008 479.875008C659.047008 478.739008 637.170016 466.067008 625.249984 441.875008C602.018016 394.643008 602.607488 345.139008 624.687488 297.875008C649.711488 243.827008 727.800512 237.697984 756.312512 305.2499840000001C766.232512 328.673984 774.581504 407.855488 744.437504 448.687488C728.501504 470.607488 704.703008 481.011008 681.875008 479.875008zM411.750016 351.562496C410.141984 352.1194880000001 407.887488 352.133504 404.687488 351.437504C369.551488 344.717504 333.698496 339.193504 298.5624992 330.937504C281.2824992 327.033504 269.4864992000001 314.299008 270.0624992 294.875008C271.0544992 260.635008 307.7784992 257.824 318.5624992 256C378.306496 255.456 417.953504 292.075488 415.937504 338.1874880000001C415.505504 343.539488 416.574016 349.891488 411.750016 351.562496zM201.3750016 159.812512C206.4749984 160.620512 212.7275008 158.812512 217.6875008 158.812512C416.151488 159.420512 608.660992 159.608 807.124992 159C817.300992 159 832 165.627488 832 144.187488C832 121.531488 815.360512 129.312512 805.312512 129.312512L218.75 129.062496C207.646 129.062496 191.4544992 121.860992 192.0624992 145.124992C192.3664992 155.556992 196.2750016 159.004512 201.3750016 159.812512z" />
    <glyph glyph-name="affiliatetheme"
      unicode="&#xF36B;"
      horiz-adv-x="1024" d="M387.3125120000001 736C327.577408 735.4998048 236.0415008 673.6115007999999 161.1875008 577.4375008C69.0595008 459.069504 36.712 334.101984 89 297.750016C141.288 261.7180160000001 258.6844992 328.539008 350.8125120000001 446.875008C442.940512 565.2430079999999 475.288 690.1555008 423 726.1875008C413.1960000000001 732.9435008 401.097536 736.1154304 387.3125120000001 736zM959.5 544C837.868 340.512 642.828 238.668 523.5 311.5C482.412 336.6520000000001 457.124512 389.92 447.8125120000001 448C384.580512 330.88 262.656 227.1040000000001 128 192C213.792 89.984 346.830496 32 490.062496 32C748.846496 32 958.749984 243.898496 958.750016 505.562496C959.069984 520.250496 960.876 530.0160000000001 959.5 544z" />
    <glyph glyph-name="airbnb"
      unicode="&#xF834;"
      horiz-adv-x="1024" d="M512.624992 768C473.616992 768 437.448512 750.8384992 410.3125120000001 719.0624992C398.664512 704.6944992 390.265504 689.4689984 382.937504 676.1249984L381.5 673.25C376.284 662.7860000000001 370.772 651.9055008 364.5 639.9375008L363.124992 636.8750016C301.3009984000001 514.539008 247.9844992 403.431488 199.3124992 295.6874880000001L196.25 289.062496C194.17 284.550496 192.1044992 279.909984 190.3124992 275.750016L187.6875008 270.062496C185.7675008 265.838496 183.85 261.5579840000001 182.25 257.750016C178.506 249.238016 174.7210016 240.38 170.6249984 229.5C160.6089984 199.836 157.7529984 172.917504 161.6249984 144.437504C170.2970016 85.653504 209.2630016 35.152992 263.3750016 12.624992C284.0150016 4.112992 304.8864992 0 327.062496 0C331.9584960000001 0 339.277504 0.38 347.437504 1.5C374.189504 4.956 400.247008 14.0129920000001 424.375008 28.124992C452.51488 43.9955200000001 480.177888 66.850048 510.937504 99.687488L512.187488 98L512.687488 98.687488C541.450304 67.90576 569.337952 44.755008 597.624992 28.375008C622.200992 14.007008 648.229504 4.984992 674.437504 1.624992C682.981504 0.408992 690.407488 0 695.687488 0C717.575488 0 738.684512 4.137504 758.812512 12.937504L758.812512 12.875008C812.380512 34.379008 851.188 83.847008 860.5 142.375008L861.437504 147.624992C866.493504 172.552992 864.016 199.122496 854 228.562496C852.72 232.370496 851.083488 236.144 850.187488 238C847.723488 244.624 845.051008 250.854016 842.875008 255.750016C840.987008 260.486016 838.891008 264.929984 836.875008 269.2499840000001L831.812512 280.6874880000001C830.116512 284.527488 828.542016 288.318496 826.750016 292.062496L824.687488 296.062496C772.079488 412.126496 717.267008 526.2289920000001 661.875008 635.1249984L659.187488 640.5C653.299488 651.38 647.364992 663.232 641.124992 676L639.312512 679.5C632.752512 691.3720000000001 626.019008 703.5595008 615.875008 715.6875008L614.375008 717.6249984C589.031008 750.1370016 552.880992 768 512.624992 768zM511.750016 703.3124992C530.665984 703.6084992 549.303008 695.8384992 562.375008 680.0624992L565.750016 675.8124992C572.470016 668.1324992 577.218496 659.504 582.562496 650L584.5 645.8124992C590.42 634.0044992 596.645504 621.4990015999999 602.437504 610.8750016L604.750016 606.1875008C659.822016 497.963488 714.192 384.74 766 270.5L770.562496 260.375008L770.937504 260C771.641504 258.4 772.358496 256.819488 773.062496 255.1874880000001L778.812512 242.312512C780.348512 238.952512 781.921504 235.551488 783.937504 230.6874880000001C785.921504 226.175488 788.153504 221.140512 790.937504 213.812512C791.769504 211.892512 792.703008 209.952 793.375008 208L793.437504 207.812512C800.125504 188.292512 801.577984 172.5205120000001 798.249984 158.312512L797.437504 153.562496C791.965504 116.6664960000001 768.009504 85.488512 732.937504 71.312512C722.569504 66.608512 709.351488 64 695.687488 64C692.679488 64 688.470496 64.2624960000001 683.062496 65.062496C664.918496 67.366496 646.998016 73.607488 629.750016 83.687488C604.58112 98.26064 579.091616 120.146304 551.937504 150.437504L554 153.124992C597.776 210.276992 625.167008 262.519008 635.375008 308.375008L635.437504 308.624992C640.365504 331.3449920000001 641.319008 352.743488 638.375008 371.6874880000001C635.943008 390.087488 629.336 407.687488 619 423.687488C596.76 458.951488 556.8 480 512 480C469.056 480 429.424 459.583008 406 425.375008L404.249984 422.437504C394.297984 406.565504 388.021984 389.557504 385.750016 372.437504C382.582016 352.085504 383.508 331.206496 388.5 309.062496C398.324 262.822496 426.606496 208.7805120000001 470.062496 152.812512L471.375008 151.124992L471.312512 151.062496C442.224512 118.934496 417.332 97.608992 392.5 83.624992C375.38 73.640992 357.499008 67.337504 338.875008 64.937504C334.011008 64.233504 329.846496 64 327.062496 64C313.1744992 64 300.6750016 66.469984 287.8750016 71.750016C254.4670016 85.638016 230.344 117.085504 225 153.437504C222.504 171.645504 224.4735008 188.739008 230.9375008 207.875008C234.2015008 216.5790080000001 237.5424992 224.407008 241.0624992 232.375008C242.6304992 236.119008 244.336 239.8200000000001 246 243.5L248.9375008 250.124992C250.7295008 254.252992 252.5815008 258.3430080000001 254.4375008 262.375008L258.3124992 271C305.8964992 376.2480000000001 358.8605120000001 486.438496 420.8125120000001 609.0624992L421.875008 611.5624992C427.539008 622.3464991999999 433.247488 633.6824991999999 438.687488 644.5624992L439.5 646.25C445.324 656.778 451.916 668.7184992 459.5 678.0624992C473.644 694.6384992000001 492.834016 703.0164992 511.750016 703.3124992zM512 416C534.688 416 554.409504 406.145984 564.937504 389.249984C570.409504 380.802016 573.688 372.290496 575 362.562496C576.824 350.946496 576.075008 337.001984 572.875008 322.2499840000001C565.323008 288.426016 544.836512 248.586496 511.812512 203.562496C479.204512 247.626496 458.264 288.479488 451 322.6874880000001C447.704 337.279488 446.984 350.322016 449 363.2499840000001C450.248 372.306016 453.465504 380.802016 458.937504 389.249984L459.562496 390.3125120000001C471.178496 406.440512 490.656 416 512 416z" />
    <glyph glyph-name="algolia"
      unicode="&#xF36C;"
      horiz-adv-x="1024" d="M160 736L160 32L864 32L864 736L160 736zM224 672L800 672L800 96L224 96L224 672zM480 640C462.336 640 448 625.664 448 608L448 566.562496C468.288 572.6424959999999 489.76 576 512 576C534.24 576 555.712 572.6424959999999 576 566.562496L576 608C576 625.664 561.664 640 544 640L480 640zM342.624992 576C334.436992 576 326.24 572.818496 320 566.562496L297.3750016 544C284.8629984 531.488 284.8629984 511.229984 297.3750016 498.750016L323.5 472.562496C340.972 499.794496 364.143008 522.965504 391.375008 540.437504L365.249984 566.562496C358.994016 572.818496 350.812992 576 342.624992 576zM512 544C405.952 544 320 458.048 320 352C320 245.952 405.952 160 512 160C618.048 160 704 245.952 704 352C704 458.048 618.048 544 512 544zM512 480C582.592 480 640 422.592 640 352C640 281.408 582.592 224 512 224C441.408 224 384 281.408 384 352C384 422.592 441.408 480 512 480zM512 448L512 352L595 399.437504C578.424 428.333504 547.68 448 512 448z" />
    <glyph glyph-name="alipay"
      unicode="&#xF642;"
      horiz-adv-x="1024" d="M160 736V32H864V736H160zM224 672H800V96H224V672zM480 608H544V448H480V608zM320 544H672V512H320V544zM623.936 448L352 448L352 480L640 480zM583.296 345.28C579.0400000000001 348.352 573.248 352 573.4720000000001 352.192L572.6080000000001 353.7920000000001C572.0640000000001 354.9440000000001 571.5840000000001 356.192 571.264 357.6320000000001C570.624 360.576 569.76 363.36 568.8 365.8880000000001C566.5279999999999 370.432 562.048 371.168 558.5279999999999 373.4400000000001C551.1039999999999 377.3440000000001 543.584 380.9600000000001 535.968 384.3840000000001C520.832 391.3920000000001 505.1199999999999 396.9600000000001 489.056 401.2480000000001C456.992 410.0480000000001 423.936 415.0720000000001 390.848 415.9680000000001C382.56 416.1920000000001 374.272 415.8400000000001 366.016 415.7760000000001C356.928 415.3280000000001 347.584 414.5280000000001 338.656 411.9360000000001C320.672 407.2960000000001 304.064 397.7280000000001 291.104 384.7040000000001C264 359.1680000000001 252.8639999999999 320.9600000000001 257.536 284.48C261.536 246.8480000000001 290.656 212.352 327.04 199.9680000000001C344.64 193.2800000000001 365.312 190.7520000000001 381.792 192.576C390.464 192.768 399.104 193.376 407.744 195.0400000000001C416.416 196.2560000000001 425.024 197.696 433.44 200.3200000000001C467.456 208.9920000000001 499.392 226.1760000000001 525.248 249.3440000000001C538.176 260.928 549.984 273.5360000000001 560.5440000000001 287.072C565.5360000000001 294.048 570.9760000000001 300.736 574.9760000000001 308.4160000000001C576.8640000000001 312.3200000000001 579.1040000000002 316 580.1280000000002 320.4160000000001C580.6720000000001 322.624 581.5040000000001 324.6400000000001 581.7920000000001 326.9440000000001L582.2400000000001 330.4960000000001C582.4320000000001 331.3600000000002 582.1440000000001 331.0720000000001 582.6880000000001 332.8640000000002C584.16 336.704 584.352 341.728 583.296 345.28zM487.584 292.9600000000001C468.384 274.048 445.728 258.592 419.904 248.1600000000001C413.504 245.3440000000001 406.72 243.6480000000002 399.872 242.0480000000001C393.088 240.0000000000001 386.0800000000001 238.8800000000001 378.976 238.1120000000001C364.128 235.3600000000002 352.288 235.6800000000001 339.52 238.7200000000001C314.72 244.2240000000001 292.896 263.8400000000001 289.152 290.0800000000001C284.192 316.1280000000001 295.872 344.5440000000001 316 358.6880000000001C325.824 366.1120000000001 337.088 370.2720000000001 348.352 372.2880000000001C354.048 373.4080000000002 359.712 373.2480000000002 365.664 373.0880000000001L387.52 371.5840000000001C416.672 368.8640000000001 445.088 361.2480000000001 473.12 352.7040000000001C487.04 348.0960000000001 500.832 342.9440000000001 514.496 337.5680000000001C517.408 336.3840000000002 520.2239999999999 335.0080000000002 523.1039999999999 333.7280000000001C520.4799999999999 330.0480000000001 517.8879999999999 326.3680000000001 515.0719999999999 322.7840000000001C506.752 312 497.056 302.592 487.584 292.9600000000001zM579.712 368.448L853.12 271.2960000000001L807.808 186.304L559.2 321.472zM640 480C634.848 426.7200000000001 619.232 374.848 589.28 330.4L540 358.048C563.52 391.136 577.888 435.264 582.4639999999999 480H640z" />
    <glyph glyph-name="amazon"
      unicode="&#xF270;"
      horiz-adv-x="1024" d="M518.4 768C412.8 768 297.6 729.6 272 598.4C268.8 585.6 278.4 576 288 576L393.6 566.4C403.2000000000001 566.4 412.8 576 412.8 585.5999999999999C422.4000000000001 630.4 460.8 652.8 502.4 652.8C524.8 652.8 550.4 643.1999999999999 563.1999999999999 624C579.1999999999999 601.5999999999999 575.9999999999999 569.5999999999999 575.9999999999999 544V528C511.9999999999999 521.5999999999999 428.7999999999999 515.1999999999999 367.9999999999999 489.6C297.5999999999999 460.8 249.5999999999999 400 249.5999999999999 307.2C249.5999999999999 191.9999999999999 323.1999999999999 134.3999999999999 415.9999999999999 134.3999999999999C495.9999999999999 134.3999999999999 537.5999999999999 153.5999999999999 598.3999999999999 214.3999999999999C617.5999999999999 185.5999999999999 627.1999999999998 169.5999999999999 662.3999999999999 140.7999999999999C671.9999999999999 137.5999999999998 681.5999999999999 137.5999999999998 687.9999999999999 143.9999999999999V143.9999999999999C710.3999999999999 163.1999999999999 751.9999999999999 198.3999999999999 774.3999999999999 217.5999999999999C783.9999999999999 223.9999999999999 780.7999999999998 236.8 774.3999999999999 246.3999999999999C755.1999999999998 275.1999999999998 732.7999999999998 297.5999999999999 732.7999999999998 348.7999999999999V521.5999999999999C732.7999999999998 595.1999999999998 739.1999999999998 662.3999999999999 684.7999999999998 713.5999999999999C643.2 755.2 572.8 768 518.4 768zM547.2 438.4C556.8000000000001 438.4 566.4000000000001 438.4 576 438.4V412.8C576 371.2 579.2 332.8 556.8 294.4C540.8 262.4 511.9999999999999 243.2 479.9999999999999 243.2C438.3999999999999 243.2 412.8 275.2 412.8 323.2C412.8 409.6 476.8 432 547.2 438.4zM854.4 179.2000000000001C825.6 179.2000000000001 793.6 172.8000000000001 768 153.6C761.6 147.2000000000001 761.6 140.8000000000001 771.2 140.8000000000001C800 144.0000000000001 860.8000000000001 153.6 873.6 137.6S860.8000000000001 64 851.2 38.4C848 32 854.4000000000001 28.8 860.8000000000001 32C908.8 70.4 921.6 153.6 912.0000000000002 166.4C905.6 176 883.2 179.2000000000001 854.4 179.2000000000001zM118.4 166.4C112 166.4 108.8 156.8 115.2 153.6C220.8 57.6 358.4 3.2 512 3.2C620.8 3.2 748.8 38.4000000000001 838.4 102.4000000000001C854.4 112.0000000000001 841.6 131.2000000000001 825.6 124.8000000000001C726.4 83.2000000000001 620.8 64.0000000000001 521.6 64.0000000000001C377.6 64.0000000000001 240 102.4000000000001 124.8 169.6000000000001C121.6 163.2000000000001 118.4 166.4 118.4 166.4z" />
    <glyph glyph-name="amazon-pay"
      unicode="&#xF42C;"
      horiz-adv-x="1024" d="M283.8750016 640L277.1875008 638.8750016C256.2595008 636.2509984000001 236.0804992 628.422 219.3124992 615.75C215.5684992 613.51 212.212 610.508 208.5 607.5C208.116 608.236 207.75 609.014 207.75 609.75C206.982 613.8779999999999 206.6109984 618.3095008 205.8750016 622.4375008C204.7549984 629.1575008 201.0324992 632.5624992 194.3124992 632.5624992L176.75 632.5624992C165.934 632.5624992 164.0624992 630.2764992 164.0624992 619.8124992L164.0624992 295.812512C164.4464992 290.9485120000001 167.404 288.384 171.5 288L204 288C208.48 288 211.0855008 290.9485120000001 211.4375008 295.812512C211.8215008 297.316512 211.8124992 298.808512 211.8124992 300.312512L211.8124992 412.875008C213.3164992 411.371008 214.4515008 410.6110080000001 215.1875008 409.875008C242.4515008 387.091008 273.8195008 379.655008 308.1875008 386.375008C339.547488 392.711008 361.176 411.750016 375 439.750016C385.816 461.029984 390.240992 482.667488 390.624992 506.187488C391.360992 531.947488 389.128512 556.744 378.3125120000001 581C365.608512 610.856 343.98 630.6550016 311.5 637.3750016C306.636 638.4950016 301.4264992 638.8890016 296.5624992 639.6249984C292.0824992 640.0090016 287.9710016 640 283.8750016 640zM532.562496 640C531.058496 639.616 529.628992 639.25 528.124992 639.25C513.180992 638.514 498.590496 636.6495007999999 484.062496 632.9375008C474.718496 630.6975008 465.772512 627.3509984 456.812512 624.3750016C451.212512 622.5190016 448.562496 618.3895008 448.562496 612.4375008C448.946496 607.5735007999999 448.562496 602.364 448.562496 597.5C448.946496 590.044 451.958496 588.1120000000001 459.062496 590C470.998496 592.976 482.939008 596.3224992 494.875008 598.5624992C513.531008 601.9224992 532.584992 603.4364992000001 551.624992 600.8124992C561.704992 598.9564992 571.039008 596.326 577.375008 587.75C582.975008 580.646 585.240992 571.7099840000001 585.624992 562.750016C586.008992 550.045984 586 539.984512 586 527.312512C586 526.576512 586.008992 525.852 585.624992 525.5L583.750016 525.5C567.686016 529.596 551.291008 531.817504 534.875008 532.937504C517.691008 533.673504 500.540992 532.921504 484.124992 526.937504C464.348992 520.217504 448.249504 508.299008 438.937504 488.875008C431.833504 473.931008 430.697504 458.219488 432.937504 442.187488C436.297504 420.523488 446.772512 404.119488 465.812512 393.687488C484.116512 383.607488 503.527488 382.524 523.687488 385.5C546.823488 388.86 567.330016 398.556 585.249984 413.5C585.985984 414.236 586.764 414.576512 587.5 415.3125120000001C588.62 409.328512 589.38 403.716 590.5 398.5C591.236 393.636 594.270016 390.696512 598.750016 390.3125120000001L623.750016 390.3125120000001C627.494016 390.3125120000001 630.875008 393.654016 630.875008 397.750016C631.259008 398.870016 631.249984 400.403008 631.249984 401.875008L631.249984 561.187488C631.153984 567.555488 630.744992 574.288992 629.624992 580.6249984C626.648992 600.4010016 618.42 616.8484992 600.5 627.3124992C590.42 633.2964992 579.248512 636.2689984 567.312512 638.1249984C561.712512 638.8930015999999 556.475008 639.264 550.875008 640L532.562496 640zM662 639.9375008C658.256 639.9375008 656.388992 636.6190016 657.124992 632.8750016C657.860992 629.8669984 659.004992 626.476 660.124992 623.5C689.980992 549.5799999999999 720.197504 475.709504 750.437504 401.437504C753.061504 395.101504 753.413504 389.836 750.437504 383.5C745.605504 372.332 741.466016 360.7624960000001 736.249984 349.562496C731.770016 339.482496 724.324992 331.976 713.124992 329C705.668992 327.112 697.464992 326.38 689.624992 327.5C685.880992 327.884 682.119008 328.616 678.375008 329C673.127008 329.384 670.571488 327.1624960000001 670.187488 321.562496L670.187488 306.562496C670.571488 297.954496 673.173984 294.254016 681.750016 292.750016C689.973984 291.278016 698.54 290.196512 707.5 289.812512C733.612 289.460512 754.184992 299.8409920000001 767.624992 322.624992C773.224992 331.5849920000001 777.716512 340.928992 781.812512 350.624992C818.004512 442.080992 853.847488 533.1600000000001 889.687488 625C890.807488 627.624 891.491008 630.274 891.875008 633.25C892.611008 637.73 890.376512 639.9390016 886.312512 639.8750016L856.124992 639.8750016C850.908992 640.2589984 846.043488 636.9264992000001 844.187488 632.0624992C843.451488 629.8224992 842.673504 627.99 841.937504 625.75L788.562496 473.062496C784.818496 462.246496 780.681504 451.060992 776.937504 439.124992C776.169504 441.012992 775.821504 441.755008 775.437504 442.875008C755.661504 497.371008 736.276 551.816512 716.5 606.3124992C713.524 615.2724992000001 710.172512 623.924 706.812512 632.5C705.340512 636.6279999999999 701.926496 639.5624992 697.062496 639.5624992C685.478496 639.9464992000001 673.936 639.9375008 662 639.9375008zM283.5 601.1875008C306.284 599.3315008 324.928992 588.1210016 334.624992 561.624992C340.608992 545.2089920000001 342.124992 529.371488 342.124992 512.187488C342.124992 496.123488 341.019488 481.920992 336.187488 466.624992C325.723488 434.144992 301.8115008 421.465504 271.1875008 422.937504C249.5235008 424.057504 231.2464992 432.314016 214.0624992 444.249984C212.2064992 445.370016 211.0855008 447.174496 211.4375008 449.062496L211.4375008 575.812512C211.0855008 578.0524992 212.2064992 579.88 214.0624992 581C234.9584992 595.56 258.092 603.0435008 283.5 601.1875008zM525.687488 500.375008C532.079488 500.935008 538.523008 500.814496 544.875008 500.062496C557.579008 498.942496 570.296 496.731008 583 494.875008C585.624 494.491008 586.312512 493.364992 586.312512 491.124992C585.928512 483.636992 586.312512 476.550496 586.312512 469.062496C586.312512 461.606496 585.937504 454.863008 585.937504 447.375008C586.321504 445.519008 585.191488 444.057504 583.687488 442.937504C566.503488 430.617504 547.842496 422.364992 526.562496 420.124992C517.986496 419.388992 509.379488 419.390016 501.187488 422.750016C491.843488 426.110016 484.811488 433.968512 482.187488 443.3125120000001C479.211488 453.008512 479.220512 463.084512 481.812512 472.812512C485.908512 485.516512 494.844512 492.559488 506.812512 496.687488C512.972512 498.559488 519.295488 499.815008 525.687488 500.375008zM929.312512 255.937504C899.444512 255.5215040000001 864.189504 248.8304960000001 837.437504 230.062496C829.181504 224.334496 830.628512 216.381504 839.812512 217.437504C869.892512 221.053504 936.844512 229.1710080000001 948.812512 213.875008C960.812512 198.5790080000001 935.543008 135.474016 924.375008 107.249984C920.919008 98.834016 928.225504 95.350016 935.937504 101.750016C985.985504 143.670016 998.990016 231.5474880000001 988.750016 244.1874880000001C983.613984 250.507488 959.180512 256.3535040000001 929.312512 255.937504zM38.9375008 223.937504C31.95949984 222.977504 28.954 214.132992 36.25 207.124992C161.594 89.556992 327.220992 32 511.124992 32C642.292992 32 794.567488 74.797504 899.687488 155.437504C917.063488 168.845504 902.261504 188.936 884.437504 181C766.581504 129 638.574496 103.937504 522.062496 103.937504C349.390496 103.937504 182.232 139.987008 47 221.875008C44.04 223.667008 41.2635008 224.2575040000001 38.9375008 223.937504z" />
    <glyph glyph-name="amilia"
      unicode="&#xF36D;"
      horiz-adv-x="1024" d="M525.750016 704C437.334016 704 342.296 695.008 267 640C259.704 635.5840000000001 253.9995008 626.8724992 256.6875008 612.3124992C258.2555008 605.0164992 263.986 573.1274880000001 271.25 555.687488C277.106 541.1274880000001 291.546 541.144 300.25 547C346.713984 578.8399999999999 444.912992 608 524.624992 608C607.344992 608 608.749984 559.4024959999999 608.750016 495.562496L608.750016 440.562496C483.885984 424.434496 280.742 391.160512 235.75 372.312512C185.03 349.0165120000001 192.3749984 249.644 192.3750016 223.5C192.3750016 182.9880000000001 214.1084992 64 370.8125120000001 64C439.100512 64 558.018496 93.564992 614.562496 124.124992L614.562496 79.875008C614.562496 75.587008 617.616512 68.217504 623.312512 66.937504C627.728512 65.4975040000001 684.535488 64.062496 697.687488 64.062496C710.839488 64.062496 786.959488 63.654496 792.687488 65.062496C798.543488 66.502496 800 73.774496 800 78.062496L800 509.750016C799.872 624.438 717.302016 704 525.750016 704zM608.624992 359.312512L608.624992 196.187488C578.064992 177.339488 521.548992 161.375008 478.124992 161.375008C402.700992 161.375008 382.815488 219.875008 382.687488 235.875008C382.687488 253.3150080000001 378.380512 296.845504 408.8125120000001 311.437504C443.532512 330.285504 544.752992 353.456512 608.624992 359.312512z" />
    <glyph glyph-name="android"
      unicode="&#xF17B;"
      horiz-adv-x="1024" d="M337 784C331.624992 782.624992 327.375008 778.5 325.750016 773.249984C324.124992 767.875008 325.375008 762.124992 329 758L376 690C322.624992 649 288 584.249984 288 512L288 192C288 169.5 302.124992 153.5 320 142L320 48C320 4.249984 356.250016 -32 400 -32C443.750016 -32 480 4.249984 480 48L480 128L544 128L544 48C544 4.249984 580.250016 -32 624 -32C667.750016 -32 704 4.249984 704 48L704 142C721.875008 153.5 736 169.5 736 192L736 512C736 584.249984 701.375008 649 648 690L695 758C698.875008 762.875008 699.624992 769.624992 696.875008 775.124992C694 780.749984 688.250016 784.249984 682 784C681 784.124992 680 784.124992 679 784C674.750016 782.875008 671.124992 780 669 776L621 708C588.750016 726 551.375008 736 512 736C472.624992 736 435.250016 726 403 708L355 776C352.250016 780.749984 347.375008 783.749984 342 784C341 784.124992 340 784.124992 339 784C338.375008 784 337.624992 784 337 784zM512 672C589.624992 672 654.124992 617.124992 669 544L355 544C369.875008 617.124992 434.375008 672 512 672zM448 640C430.375008 640 416 625.624992 416 608C416 590.375008 430.375008 576 448 576C465.624992 576 480 590.375008 480 608C480 625.624992 465.624992 640 448 640zM576 640C558.375008 640 544 625.624992 544 608C544 590.375008 558.375008 576 576 576C593.624992 576 608 590.375008 608 608C608 625.624992 593.624992 640 576 640zM192 544L192 224L256 224L256 544zM768 544L768 224L832 224L832 544zM352 480L672 480L672 192L640 192L640 48C640 38.875008 633.124992 32 624 32C614.875008 32 608 38.875008 608 48L608 192L416 192L416 48C416 38.875008 409.124992 32 400 32C390.875008 32 384 38.875008 384 48L384 192L352 192z" />
    <glyph glyph-name="angellist"
      unicode="&#xF209;"
      horiz-adv-x="1024" d="M410 768C400 768.624992 389.750016 766.875008 380 763C361.5 755.5 348.875008 739.124992 343 723C337.124992 706.875008 335.5 690.375008 336 673C336.875008 638.249984 345.624992 599.5 356 562C364.5 531.249984 374.250016 502.5 383 478C377.750016 479 372.375008 479.249984 367 479C355.5 478.375008 344.250016 474.624992 334 468C309 451.875008 293.875008 426.249984 291 402C288.375008 380.2499840000001 293.5 360.5 300 343C282.750016 341.2499840000001 265.875008 335.5 253 323C232.375008 302.875008 224 273.5 224 239C224 125.375008 284.5 58.749984 349 29C413.5 -0.750016 481.250016 0 507 0C535 0 599.624992 2.375008 659 43C718.375008 83.624992 768 164 768 299C768 310.624992 776.750016 362.7499840000001 744 407C737 416.5 727.5 425 717 433C723.375008 453.875008 738.624992 504.249984 751 567C758.624992 605.749984 764.624992 645.124992 764 679C763.624992 696 762.124992 711.624992 756 727C749.875008 742.375008 735.124992 759.624992 715 764C694.624992 768.5 673.624992 764.375008 657 755C640.375008 745.624992 628.124992 732.124992 617 717C594.875008 686.624992 578.5 648.375008 566 610C561.750016 596.875008 558.5 583.875008 555 571C549.5 586.5 543.624992 602 537 618C521 656.749984 502.250016 694.875008 479 724C467.375008 738.624992 454.624992 751.5 438 760C429.624992 764.249984 420 767.375008 410 768zM405 705C405.750016 704.875008 406.875008 704.124992 409 703C413.250016 700.875008 420.875008 694.124992 429 684C445.124992 663.749984 463.124992 629.875008 478 594C497 548.375008 509.875008 508.749984 518 480C517.250016 480 516.750016 480 516 480C493.624992 480 473.124992 470.749984 459 457C451.624992 475 432.875008 521.624992 417 579C407.375008 613.875008 400.624992 649 400 674C399.624992 686.5 401.375008 696.5 403 701C403.750016 703.249984 404.124992 703.749984 404 704C404.375008 704.124992 404.624992 705 405 705zM693 700C694.5 700 695.750016 700 697 700C698.250016 695.5 699.750016 688.624992 700 678C700.5 652.875008 695.124992 616.5 688 580C678 529.249984 666.624992 488.249984 659 462C641.375008 467.5 621.124992 472 598 475C602.875008 501.624992 611.375008 542 627 590C638.375008 625 653 658.5 668 679C675.5 689.249984 682.624992 696 688 699C689.750016 700 691.5 700 693 700zM516 416C634 416 677.375008 389 693 368C708.624992 347 704 325.2499840000001 704 299C704 178.875008 665.250016 124.875008 623 96C580.750016 67.124992 530.250016 64 507 64C481.5 64 424.124992 64.749984 376 87C327.875008 109.249984 288 146 288 239C288 263 294.5 274.5 298 278C301.5 281.5 305 282.875008 317 280C336.375008 275.375008 370.375008 252 402 210C409.375008 200.2499840000001 416.124992 189.7499840000001 423 178C421 175.624992 415 172 411 172C406.124992 172 401.5 173.5 393 181C384.5 188.5 374.124992 202.875008 363 220L309 185C321.5 165.624992 334.124992 148.2499840000001 350 134C365.875008 119.7499840000001 387.250016 108 411 108C435.5 108 457.124992 119.375008 472 137C475.875008 141.5 476.5 148.124992 479 154C483.624992 140.875008 489 128.875008 495 120C508.5 100.124992 525 90 525 90L560 143C560 143 555.250016 145.2499840000001 548 156C540.750016 166.7499840000001 533 184.2499840000001 533 212C533 222 534.5 230.124992 538 237C543.750016 248.2499840000001 553.875008 256 565 263C582.875008 274.2499840000001 601 278 601 278C615.250016 281.124992 625.624992 293.624992 626.124992 308.2499840000001C626.624992 322.875008 617 335.875008 603 340C603 340 552.250016 355.124992 512 367C509.5 367.7499840000001 507 369.2499840000001 505 371C504.250016 371.624992 503.624992 372.2499840000001 503 373C501.624992 375.2499840000001 500.5 377.7499840000001 499 380C497.250016 384.624992 496.5 390.249984 497 396C497.624992 402.875008 500.250016 408 503 411C505.750016 414 508 416 516 416zM368 415C369.375008 415.875008 369.5 415.875008 377 413C384.5 410.124992 396.5 402.375008 409 390C434 365.2499840000001 460.875008 323.875008 478 280C482 269.7499840000001 481.124992 267.2499840000001 480 265C478.875008 262.7499840000001 475.750016 259.624992 470 257C464.250016 254.375008 456 252.875008 451 253C446 253.124992 446.750016 257.2499840000001 453 249L451 248C431.875008 274.375008 412.250016 295.875008 391 312C391 312 371.375008 335.375008 361 361C355.750016 373.875008 354 386.749984 355 395C356 403.249984 357.124992 408 368 415z" />
    <glyph glyph-name="angry-creative"
      unicode="&#xF36E;"
      horiz-adv-x="1024" d="M928 608L878.375008 604.5L841.624992 532.5L820.812512 600.6249984L769.249984 597.1249984L776.312512 578.25C762.872512 593.29 738.535008 595.2250016 718.375008 593.6249984L655.375008 589.4375008L650.249984 538.875008C648.649984 540.475008 629.452512 591.0424992000001 564.812512 586.5624992C499.532512 582.4024992 474.902496 533.1274880000001 463.062496 511.687488L469.437504 576.6249984L423.687488 573.750016L413.437504 468.812512L352.937504 568.937504L309.75 566.062496L293.75 400.937504L244.8124992 561.937504L206.3750016 559.375008L115.1875008 367.062496L166.3750016 370.2499840000001L179.1875008 399.062496L242.5624992 403.187488L249.6249984 375.6874880000001L340.5 381.437504L350.375008 485.750016L410.562496 385.937504L450.562496 388.5L456.937504 452.187488C472.617504 406.427488 503.704992 387.495008 545.624992 390.375008C609.624992 394.215008 630.377504 435.529984 640.937504 450.249984L635.812512 400.624992L681.249984 403.5L687.687488 464L718.375008 405.750016L776.624992 409.624992L736.312512 471.062496C772.792512 485.782496 789.1 513.924992 787.5 549.124992L812.812512 481.249984L805.124992 411.5L850.562496 414.375008L858.249984 484.187488L928 608zM696.624992 550.750016C716.464992 551.7099840000001 727.677504 550.7 733.437504 547.5C737.917504 544.94 739.835008 539.5150080000001 738.875008 530.875008C737.915008 521.915008 733.789984 515.8399999999999 726.750016 512C720.029984 508.48 708.507488 506.210016 692.187488 505.249984L696.624992 550.750016zM561.937504 540.187488C568.337504 540.507488 575.037504 538.8725119999999 581.437504 536.312512C586.557504 533.752512 592.662496 529.26 599.062496 523.5L648.937504 526.750016L647.062496 507.812512L546.249984 501.124992L542.375008 463.375008L597.124992 466.875008C589.764992 456.955008 581.772512 448.98 572.812512 444.5C566.092512 440.6600000000001 559.047488 438.390016 551.687488 437.750016C537.927488 436.790016 526.397504 440.970016 517.437504 450.249984C508.157504 459.850016 504.337504 472.022496 505.937504 487.062496C507.537504 502.742496 514.269984 515.509984 526.750016 525.750016C537.309984 534.389984 549.137504 539.5474879999999 561.937504 540.187488zM220.1875008 499.187488L233.6249984 440L195.5 437.437504L220.1875008 499.187488zM1024 412.187488L874.875008 402.249984L824.312512 272.312512L802.562496 397.750016L753.937504 394.562496L792 208.624992L843.187488 211.812512L918.750016 393.937504L898.562496 215.375008L1001.937504 221.750016L1006.750016 263.062496L951.687488 259.5L955.5 291.1874880000001L1010.562496 294.750016L1015.687488 339.1874880000001L960.312512 335.375008L963.5 364.1874880000001L1018.875008 367.6874880000001L1024 412.187488zM748.812512 394.249984L703.375008 391.062496L682.875008 201.937504L728 204.812512L748.812512 394.249984zM695.687488 390.375008L575.687488 382.750016L571.187488 338.562496L606.750016 340.812512L592.624992 205.750016L541.124992 380.1874880000001L503.062496 377.937504L415.062496 192.937504L418.562496 225.624992L360.3125120000001 222.062496L363.5 253.437504L421.750016 256.937504L425.937504 301.124992L367.687488 297.624992L370.562496 325.750016L428.8125120000001 329.624992L432.937504 373.437504L329.249984 367.062496L325.124992 324.812512C319.0450016 356.4925120000001 289.25 364.4899840000001 257.25 362.2499840000001L194.8750016 358.375008L190.3750016 309.750016C184.6150016 318.710016 168.66 359.027488 108.5 355.1874880000001C43.22 351.027488 4.47249984 298.267488 0.3125 252.1874880000001C-4.80750016 193.307488 38.0824992 157.1125120000001 90.5624992 160.312512C130.5624992 162.552512 164.15 188.144992 181.75 216.624992L177.25 170.875008L222.3750016 173.437504L228.1875008 232.312512L259.1875008 175.687488L461.124992 187.812512L473.937504 213.437504L536.937504 217.624992L543.687488 192.937504L636.5 198.750016L652.187488 343.6874880000001L690.875008 346.2499840000001L695.687488 390.375008zM255.5624992 318.750016C271.9875008 318.330016 279.5024992 313.922496 278.0624992 298.562496C275.8224992 276.482496 254.72 274.529984 232 273.2499840000001L236.1875008 318.062496C243.6275008 318.5424960000001 250.0875008 318.8899840000001 255.5624992 318.750016zM515.812512 317.437504L528.312512 257.937504L490.562496 255.375008L515.812512 317.437504zM104 308.812512C122.88 310.0925120000001 135.3775008 303.332512 145.9375008 283.812512L188.1875008 286.375008L184 239.375008L140.8124992 236.812512C128.6524992 220.492512 114.8549984 208.0224960000001 94.3750016 207.062496C60.1349984 204.822496 46.3849984 231.04 48.6249984 256C50.5450016 280.9600000000001 73.6 306.892512 104 308.812512zM320.937504 281.624992L311.6875008 186.875008L276.5 239.6874880000001C297.62 248.327488 312.9375008 260.184992 320.937504 281.624992z" />
    <glyph glyph-name="angular"
      unicode="&#xF420;"
      horiz-adv-x="1024" d="M512 770.0624992L139.5624992 634.6249984L206.3750016 133.124992L512 -36.624992L817.624992 133.187488L884.437504 634.6249984L512 770.0624992zM512 701.9375008L814.187488 592.0624992L758.375008 173.5L512 36.624992L265.6249984 173.5L209.8124992 592.0624992L512 701.9375008zM512 640L320 192L384 192L425.249984 288L598.750016 288L640 192L704 192L512 640zM512 494.375008L512.624992 492.5L535.062496 436.5L571.187488 352L452.812512 352L488.937504 436.5L511.375008 492.5L512 494.375008z" />
    <glyph glyph-name="app-store"
      unicode="&#xF36F;"
      horiz-adv-x="1024" d="M512 800C282.624992 800 96 613.375008 96 384C96 154.624992 282.624992 -32 512 -32C741.375008 -32 928 154.624992 928 384C928 613.375008 741.375008 800 512 800zM512 736C706.750016 736 864 578.749984 864 384C864 189.2499840000001 706.750016 32 512 32C317.250016 32 160 189.2499840000001 160 384C160 578.749984 317.250016 736 512 736zM511 632C508.5 631.624992 505.375008 630.375008 503 629L487 620C477.624992 614.5 474.5 602.5 480 593L617 358L667 387L530 622C525.875008 629 518.624992 633 511 632zM469 554C461.375008 555 453.124992 551.124992 449 544L432 514L484 484L501 514C506.5 523.5 503.375008 535.5 494 541L476 551C473.624992 552.375008 471.5 553.624992 469 554zM428 507L307 300L358 270L479 477zM256 413L256 355L329 355L363 413zM450 413L418 355L605 355L573 413zM664 413L695 355L767 355L767 413zM673 377L623 348L652 298L702 327zM699 314C697.375008 313.7499840000001 695.750016 313 694 312C685.875008 307.375008 674.124992 300.2499840000001 667 296C653.624992 288 664 264.124992 667 259C684.375008 229.875008 702.5 233.624992 716 213C723.375008 201.7499840000001 720.624992 196.7499840000001 723 193C723.875008 191.624992 726.875008 190.375008 728 192C748.875008 220.875008 743.124992 271 728 293C721.875008 302 710.750016 316 699 314zM300 289L275 195C274.5 193.2499840000001 275.5 190.875008 277 190C278.5 189.124992 280.750016 189.7499840000001 282 191L352 259z" />
    <glyph glyph-name="ios-app-store"
      unicode="&#xF370;"
      horiz-adv-x="1024" d="M160 736L160 32L864 32L864 736L160 736zM224 672L800 672L800 96L224 96L224 672zM511.750016 607.6875008C509.125984 608.3275008 506.866496 607.9995008000001 504.562496 606.6875008C499.634496 604.0635007999999 496.946016 598.1155008000001 499.249984 593.1875008C514.737984 556.963488 569.06 432.124992 614.5 348.124992L656.687488 370.875008C613.583488 454.555008 538.775488 570.767008 517.687488 603.3750016C516.375488 605.6789984 514.054016 607.0155007999999 511.750016 607.6875008zM487.937504 535.562496C476.737504 536.874496 465.857504 532.270496 459.937504 522.062496L508.375008 493.437504C515.959008 506.909504 511.308992 524.658496 498.124992 532.562496C494.828992 534.1944960000001 491.233504 534.890496 487.937504 535.562496zM455.937504 515.124992L429.937504 470.624992L479.375008 443L504.375008 486.124992L455.937504 515.124992zM427 465.750016L324.249984 286.562496L372.687488 258.562496L475.437504 436.750016L427 465.750016zM288 416L288 352L349.750016 352L387.187488 416L288 416zM474.875008 416L438.062496 352L600.624992 352C591.664992 369.6 577.904992 397.12 568.624992 416L474.875008 416zM644.187488 416C652.187488 401.28 662.737504 381.149984 665.937504 374.750016C666.577504 374.1099840000001 668.484992 370.217504 669.124992 368.937504L676.187488 352L736 352L736 416L644.187488 416zM660 364.624992L617.875008 341.875008L649.5 292.5L682.375008 311.2499840000001L660 364.624992zM685.687488 303L654.750016 286.5L687.624992 208.124992C693.544992 194.300992 709.378496 187.705504 722.562496 194.937504C735.746496 201.881504 740.036512 219.363008 731.812512 231.875008L685.687488 303zM319.9375008 280.312512L302.5 196.937504L306.8124992 195L369.375008 251.624992L319.9375008 280.312512z" />
    <glyph glyph-name="apper-systems-ab"
      unicode="&#xF371;"
      horiz-adv-x="1024" d="M99.5 511.375008C55.98 511.375008 37.4650016 506.58 25.625 492.5C18.905 484.18 16.95250016 475.837504 16.31249984 453.437504L78.0624992 453.437504C79.3424992 470.077504 84.1350016 473.937504 102.3750016 473.937504C123.1749984 473.937504 130.8750016 467.489984 130.8750016 449.249984L130.8750016 412.8125120000001L129.6249984 412.8125120000001C122.5849984 431.692512 111.7075008 436.187488 76.1875008 436.187488C28.50750016 436.187488 8.625 419.195008 8.625 378.875008C8.625 335.355008 25.92249984 320 74.5624992 320C109.4424992 320 122.8675008 326.727488 131.1875008 351.6874880000001L132.8124992 351.6874880000001L130.8750016 321.2499840000001L192 321.2499840000001L192 443.187488C192 456.307488 188.8250016 474.209984 185.6249984 481.249984C174.7450016 503.329984 152.3 511.375008 99.5 511.375008zM345.249984 511.375008C310.69 511.375008 299.8449984 505.262496 285.1249984 478.062496L283.8124992 478.062496L286.3750016 511.062496L224.9375008 511.062496L224.9375008 240.624992L288.3124992 240.624992L288.3124992 352.937504L289.6249984 352.937504C296.9850016 327.977504 311.0475008 320 343.687488 320C370.5674880000001 320 385.932512 323.535008 396.8125120000001 335.375008C411.212512 351.0550080000001 416 371.812512 416 419.8125120000001C416 464.292512 411.18 483.177504 395.5 496.937504C384.62 506.537504 368.290016 511.375008 345.249984 511.375008zM568.312512 511.375008C533.752512 511.375008 522.907488 505.262496 508.187488 478.062496L506.875008 478.062496L509.437504 511.062496L448 511.062496L448 240.624992L511.062496 240.624992L511.062496 352.937504L512.312512 352.937504C519.992512 327.977504 534.109984 320 566.750016 320C593.629984 320 608.932512 323.535008 619.812512 335.375008C634.532512 351.0550080000001 639.375008 371.812512 639.375008 419.8125120000001C639.375008 464.292512 634.555008 483.177504 618.875008 496.937504C607.995008 506.537504 591.352512 511.375008 568.312512 511.375008zM753.249984 511.375008C716.769984 511.375008 695.330016 506.244992 681.249984 493.124992C666.850016 480.324992 661.437504 460.452512 661.437504 419.8125120000001C661.437504 372.772512 665.927488 352.322496 679.687488 338.562496C694.087488 324.1624960000001 716.464992 320 760.624992 320C799.984992 320 819.855008 325.132512 831.375008 340.812512C838.415008 350.0925120000001 842.249984 364.507488 842.249984 380.1874880000001L842.249984 384L782.375008 384C782.375008 366.4 776.024992 361.624992 753.624992 361.624992C728.664992 361.624992 721.624992 369.6125120000001 721.624992 396.8125120000001C721.624992 398.092512 721.617504 401.3 721.937504 404.5L842.562496 404.5L842.562496 422.062496C842.562496 490.862496 821.729984 511.375008 753.249984 511.375008zM971.187488 511.375008C946.547488 511.375008 934.38 503.062496 923.5 479.062496L922.562496 479.062496L925.437504 511.062496L864 511.062496L864 321.2499840000001L925.124992 321.2499840000001L925.124992 430.062496C925.124992 442.862496 925.149984 445.137504 926.750016 449.937504C930.590016 459.537504 937.572512 464.624992 947.812512 464.624992C960.932512 464.624992 964.187488 458.264992 964.187488 433.624992C964.187488 432.664992 964.132512 430.0674880000001 963.812512 427.187488L1019.812512 427.187488C1019.492512 434.227488 1019.5 439.689984 1019.5 442.249984C1019.5 473.609984 1016.944992 484.784992 1008.624992 496.624992C1001.584992 506.224992 988.467488 511.375008 971.187488 511.375008zM752 467.812512C777.92 467.812512 783.375008 464.34 783.375008 444.5C783.375008 443.86 783.367488 441.255008 783.687488 438.375008L722.562496 438.375008L722.875008 443.8125120000001C724.475008 463.012512 728.96 467.812512 752 467.812512zM321.249984 465.937504C349.089984 465.937504 354.562496 457.909984 354.562496 413.750016C354.562496 375.350016 348.4900160000001 366.375008 322.249984 366.375008C293.77 366.375008 288.3124992 375.012512 288.3124992 419.8125120000001C288.3124992 457.892512 294.37 465.937504 321.249984 465.937504zM544.624992 465.937504C572.464992 465.937504 577.624992 457.909984 577.624992 413.750016C577.624992 375.350016 571.490016 366.375008 545.249984 366.375008C516.769984 366.375008 511.375008 375.012512 511.375008 419.8125120000001C511.375008 457.892512 517.424992 465.937504 544.624992 465.937504zM99.1875008 399.062496C123.5075008 399.062496 130.5624992 395.2200000000001 130.5624992 380.5C130.5624992 363.86 124.4950016 359.062496 103.3750016 359.062496C76.4950016 359.062496 70.3749984 363.172512 70.3750016 379.812512C70.3750016 394.212512 78.0675008 399.062496 99.1875008 399.062496z" />
    <glyph glyph-name="apple"
      unicode="&#xF179;"
      horiz-adv-x="1024" d="M667 832C614.5 832 561.5 804.749984 526 763L526 762C500.750016 730.624992 473.375008 681.124992 482 624C477.875008 625.624992 477.624992 625.124992 473 627C450.875008 636 423.5 646 391 646C263.624992 646 167 530.624992 167 379C167 280.875008 200 188.875008 244 120C266 85.5 291 57.124992 317 36C343 14.875008 370.250016 0 401 0C431.750016 0 454.750016 10.375008 472 18C489.250016 25.624992 502.624992 32 528 32C550.875008 32 562.5 25.749984 580 18C597.5 10.249984 621.375008 0 653 0C687.250016 0 716.375008 16.749984 740 38C763.624992 59.249984 783.5 86.624992 800 113C816.5 139.375008 829.5 165.2499840000001 839 186C843.750016 196.375008 847.250016 205 850 212C852.750016 219 854.124992 221 856 229L862 255L838 266C832.375008 268.5 810 279.624992 790 300C770 320.375008 753 348.2499840000001 753 391C753 432.375008 768.875008 460.124992 786 480C794.5 489.875008 803.375008 498 810 503C813.375008 505.5 816 506.749984 818 508C820 509.249984 819.624992 508.875008 823 511L850 528L832 555C779.750016 635.375008 696.124992 646 663 646C647.624992 646 636.750016 640.624992 623 638C630.750016 645.249984 640.750016 649.749984 647 658C647.124992 658.124992 646.875008 658.875008 647 659C647.375008 659.375008 647.750016 659.624992 648 660L649 660C683.124992 698.124992 702 749.375008 699 802L697 832zM629 758C623.5 736.875008 614.5 716.749984 600 701L598 699C585.750016 682.5 566.875008 670.249984 548 663C553.250016 683.875008 562.375008 705 575 721C575.250016 721.375008 575.750016 721.624992 576 722C590 738 609.375008 750 629 758zM391 582C408.875008 582 428.5 575.249984 449 567C469.5 558.749984 488.624992 548 516 548C543.250016 548 563.875008 558.749984 588 567C612.124992 575.249984 637.875008 582 663 582C679.750016 582 721.124992 571.375008 756 539C749.875008 533.5 744.5 529.5 738 522C713.624992 493.749984 689 449.749984 689 391C689 330 715.624992 284.124992 744 255C761.624992 237 772.5 232.7499840000001 786 225C784.250016 221 783.250016 217.875008 781 213C772.375008 194.2499840000001 760.5 170.2499840000001 746 147C731.5 123.7499840000001 713.875008 101.124992 697 86C680.124992 70.875008 665 64 653 64C634.875008 64 624.250016 69 606 77C587.750016 85 562.624992 96 528 96C491.624992 96 464.750016 85.249984 446 77C427.250016 68.749984 417.5 64 401 64C393.124992 64 376.124992 70.375008 357 86C337.875008 101.624992 316.875008 125.375008 298 155C260.124992 214.2499840000001 231 295.624992 231 379C231 505.124992 301.375008 582 391 582z" />
    <glyph glyph-name="apple-pay"
      unicode="&#xF415;"
      horiz-adv-x="1024" d="M282.5 608C263.78 608 242.0710016 597.2775008 228.3750016 581.4375008C217.6230016 568.349504 206.058 547.8870079999999 210.25 527.375008C229.546 525.039008 250.4390016 536.942016 262.3750016 552.750016C276.1029984 567.405984 283.6840000000001 587.488 282.5 608zM153.5624992 522.875008C102.8424992 522.875008 64 478.804992 64 415.124992C64 331.924992 122.404 256 158.5 256C180.58 256 188.7610016 270.437504 217.6249984 270.437504C244.4729984 270.437504 252.8609984 256 276.1249984 256C319.3569984 256 355.188 344.151488 356.5 349.6874880000001C349.396 352.823488 307.75 372.823008 307.75 420.375008C307.75 466.263008 345.775008 486.945504 347.375008 487.937504C326.703008 519.169504 293.262 522.875008 280.75 522.875008C251.726 522.875008 226.0404992 507.062496 212.3124992 507.062496C197.9764992 507.062496 177.0504992 522.875008 153.5624992 522.875008zM416 512L416 256L480 256L480 352L496 352C527.387808 352 549.566848 373.353856 562.624992 400L576 400L576 432C576 475.810016 539.810016 512 496 512L416 512zM647.124992 512L576 293.062496L576 256L640 256L640 282.937504L641.624992 288L702.375008 288L704 282.937504L704 256L768 256L768 293.062496L696.875008 512L647.124992 512zM768 512L768 470.5L832 372.062496L832 256L896 256L896 372.062496L960 470.5L960 512L896 512L896 489.5L864 440.249984L832 489.5L832 512L768 512zM480 448L496 448C505.181984 448 512 441.181984 512 432C512 422.818016 505.181984 416 496 416L480 416L480 448zM672 381.437504L681.562496 352L662.437504 352L672 381.437504z" />
    <glyph glyph-name="artstation"
      unicode="&#xF77A;"
      horiz-adv-x="1024" d="M439.375008 736L832 32L895.812512 176.375008C910.628512 206.0070080000001 909.123008 241.181504 891.875008 269.437504L643.062496 690.0624992C625.622496 718.5744992 594.564992 736 561.124992 736L439.375008 736zM368.375008 666.3124992L180.1875008 320L561.5 320L368.375008 666.3124992zM128 224L197.5 85.062496C213.756 52.550496 246.9604992 32 283.3124992 32L722.124992 32L615.062496 224L128 224z" />
    <glyph glyph-name="asymmetrik--ltd-"
      unicode="&#xF372;"
      horiz-adv-x="1024" d="M578.875008 701.3124992C404.89408 704.3081888 213.266 660.578 64 576C149.824 609.44 236.2684992 633.616 328.8125120000001 654C446.188512 679.856 566.76 693.5424992000001 673 677.0624992C910.216 640.0384991999999 979.198016 478.644 826.750016 316.5C810.878016 299.7000000000001 789.161504 281.221504 768.937504 266.437504L539.249984 604.75L244.6249984 175.812512L241.6875008 176.937504C104.7595008 224.201504 102.7655008 304.6040000000001 191.4375008 405.5C223.7895008 440.06 267.4769984 469.027008 315.1249984 495.875008C346.868992 513.763008 380.624512 531.0794880000001 415.3125120000001 543.687488C314.0324992 512.103488 220.6995008 461.396992 160.1875008 399.124992C117.0835008 354.644992 96.48 310.284992 96 270.124992C95.232 215.500992 154.766 174.372 224.75 146.5L168.8124992 64L326.8125120000001 64L326.937504 64.249984L327.375008 64L364.750016 120.750016C398.254016 119.470016 434.650496 120.936 469.562496 125L432.3125120000001 64L642.624992 64L591.249984 149.562496C619.186016 157.530496 647.470496 167.155008 674.062496 177.875008L733.437504 87.750016L748.124992 64L906.124992 64L789 236.812512C817.768 255.628512 846.649984 278.6655040000001 868.249984 300.937504C928.601984 363.177504 958.610016 425.432992 959.249984 481.624992C960.498016 583.5450016 866.885984 665.5435008 695.750016 691.6875008C658.213984 697.4295008 619.024448 700.6211872 578.875008 701.3124992zM537.875008 383.312512L560.375008 350.562496L656.750016 204.2499840000001C630.894016 193.305984 603.893504 183.591488 576.437504 175.687488L537.562496 238.875008L488.249984 155.937504C453.338016 150.721504 418.351488 150.072 384.687488 151L537.875008 383.312512z" />
    <glyph glyph-name="atlassian"
      unicode="&#xF77B;"
      horiz-adv-x="1024" d="M509.812512 768C502.964512 768 495.920512 764.1829984 491.312512 756.3750016C324.048512 480.695008 479.415488 255.2335040000001 581.687488 43.937504C585.239488 36.865504 592.375008 32 600.375008 32L843.249984 32C858.706016 32 868.823488 48.880512 861.687488 63.312512C861.687488 63.312512 535.032 739.8235008 527 756.6875008C523.288 764.1755008 516.628512 768 509.812512 768zM508.249984 648.1875008C576.089984 507.579488 713.980512 221.952 774.812512 96L627.437504 96C618.157504 114.592 608.601504 133.278496 598.937504 152.062496C515.801504 313.982496 436.729984 467.963488 508.249984 648.1875008zM330.124992 448C322.860992 448 315.9695008 443.978496 311.9375008 435.562496L130.25 63.875008C123.178 49.027008 133.9755008 32 149.6875008 32L402.437504 32L403.187488 32C411.187488 32 418.266496 36.984512 421.562496 44.312512C476.378496 159.576512 443.431488 334.7929920000001 347.687488 439.624992C342.599488 445.128992 336.236992 448 330.124992 448zM338.249984 343.6874880000001C381.065984 267.719488 395.784 169.76 373 96L217.1875008 96L338.249984 343.6874880000001z" />
    <glyph glyph-name="audible"
      unicode="&#xF373;"
      horiz-adv-x="1024" d="M512 640C349.5 640 209.124992 546.624992 140.750016 410.875008C213.375008 510.749984 331 576 464 576C609.250016 576 736.124992 498.249984 806.124992 382.375008L879.375008 419C809.5 550.375008 671.250016 640 512 640zM512 512C393.250016 512 291.5 440.124992 247.375008 337.624992C296.750016 404.5 375.750016 448 465 448C559.750016 448 643 399 691.5 325L765 361.875008C716.124992 451.375008 621.124992 512 512 512zM32 403.875008L32 332.2499840000001C199.124992 248.7499840000001 497.624992 99.375008 497.624992 99.375008L512 92.249984L992 332.2499840000001L992 403.749984L512 163.7499840000001C246.124992 296.7499840000001 106 366.7499840000001 32 403.875008zM511 384C440.750016 384 381.875008 338.124992 360.624992 274.7499840000001C386.750016 302.5 423.5 320 464.5 320C509.250016 320 548.750016 299.124992 575 266.875008L648.5 303.624992C621 351.375008 570.124992 384 511 384z" />
    <glyph glyph-name="autoprefixer"
      unicode="&#xF41C;"
      horiz-adv-x="1024" d="M509.687488 736L277.3750016 32L389.249984 32L428.8125120000001 160L595.375008 160L634.812512 32L746.687488 32L509.687488 736zM511 425.937504L513.312512 425.937504L575.562496 224L448.562496 224L511 425.937504zM296.5 224L47.0624992 206.124992L32 170.624992L273.8750016 160L296.5 224zM726.312512 224L749.375008 160L992 170.624992L976.937504 206.124992L726.312512 224z" />
    <glyph glyph-name="avianex"
      unicode="&#xF374;"
      horiz-adv-x="1024" d="M339.624992 767.9375008C265.4490016 767.9375008 196.7235008 710.5315008 183.1875008 637.1875008L98.3124992 174.375008C91.3684992 136.839008 99.9690016 101.2000000000001 122.6249984 74C145.1530016 46.928 178.4244992 32 216.3124992 32L684.312512 32C758.488512 32 827.151488 89.436512 840.687488 162.812512L925.750016 625.5624992C932.565984 663.2264992 923.812992 698.9250016 901.124992 726.1249984C878.596992 753.1009984 845.354496 767.9375008 807.562496 767.9375008L339.624992 767.9375008zM339.624992 704L807.562496 704C826.058496 704 841.854496 697.2864992 852.062496 685.0624992C862.398496 672.7104992 866.235008 655.6544992 862.875008 637.0624992L777.812512 174.375008C769.972512 131.879008 727.128512 96 684.312512 96L216.3124992 96C197.7844992 96 181.9870016 102.745504 171.8750016 114.937504C161.6029984 127.2575040000001 157.826 144.252512 161.25 162.812512L246.1249984 625.6249984C253.9970016 668.1209984 296.7769984 704 339.624992 704zM365.3125120000001 640.8124992L351.875008 633.6249984L323.5 590L427.3125120000001 439.375008L458.249984 394.687488C440.137984 376.127488 422.798016 357.8400000000001 408.750016 342L321.187488 388.937504L297.5 365.750016L376.624992 293.124992L437.875008 201.062496L464.875008 220.2499840000001L431.562496 317.124992C450.442496 328.5809920000001 472.324 342.896 494.5 358L668.687488 192L716.937504 212.375008L726.437504 224.2499840000001L583.249984 404.5L576.437504 415.5C606.325504 436.908 627.029984 452.172992 629.750016 454.124992C641.686016 464.076992 639.287488 485.535008 625.687488 501.375008C611.799488 517.6950079999999 590.928512 523.074016 579.312512 513.249984C579.312512 513.250016 557.592512 492.759008 528.312512 464.375008L520.937504 471.187488L365.3125120000001 640.8124992z" />
    <glyph glyph-name="aviato"
      unicode="&#xF421;"
      horiz-adv-x="1024" d="M99.5 544L0 333.750016L27.18750016 333.750016L57.6249984 400.624992L141.1249984 400.624992L171.1875008 333.750016L199.0624992 333.750016L99.5 544zM560 544L460.187488 334.062496L488 334.062496L518.375008 400.937504L557 400.937504L554.249984 339.1874880000001C554.249984 339.1874880000001 518.104992 328.644992 513.624992 301.124992C513.304992 300.4849920000001 513.249984 299.827488 513.249984 299.1874880000001L409.624992 302.375008L513.249984 289.2499840000001C513.249984 285.730016 513.610016 282.582496 514.249984 279.062496C514.570016 274.9024960000001 515.227488 271.3400000000001 516.187488 267.5L128 288L269.75 273.2499840000001L269.75 263.062496C260.4700000000001 261.7824960000001 253.1249984 253.42 253.1249984 243.5C253.1249984 232.62 262.0575008 223.687488 272.9375008 223.687488C283.8175008 223.687488 292.8124992 232.62 292.8124992 243.5C292.8124992 253.42 285.4124992 261.7824960000001 275.8124992 263.062496L275.8124992 272.312512L404.5 257.937504L404.5 249.2499840000001C395.54 247.649984 388.5 239.350016 388.5 229.750016C388.5 218.870016 397.432512 213.437504 408.3125120000001 213.437504C419.192512 213.437504 428.187488 218.870016 428.187488 229.750016C428.187488 239.350016 421.46 247.649984 412.5 249.2499840000001L412.5 257.2499840000001L457.937504 252.1874880000001L457.937504 214.062496L448.3125120000001 214.062496L448.3125120000001 192L457.937504 192L457.937504 202.2499840000001L465.937504 202.2499840000001L465.937504 192L475.187488 192L475.187488 213.750016L465.937504 213.750016L465.937504 251.1874880000001L527.375008 244.1874880000001C540.175008 225.947488 557.437504 222.375008 557.437504 222.375008L557.437504 211.812512L549.437504 211.5L549.124992 192L555.5 192L555.812512 200L564.187488 200L564.5 192L570.875008 192L570.562496 211.5L562.562496 211.812512L562.249984 222.375008C562.249984 222.375008 579.824992 225.947488 592.624992 244.1874880000001L654.062496 251.1874880000001L654.062496 213.750016L644.5 213.750016L644.5 192L654.062496 192L654.062496 202.2499840000001L662.062496 202.2499840000001L662.062496 192L671.687488 192L671.687488 213.750016L662.062496 213.750016L662.062496 251.812512L707.5 256.937504L707.5 248.937504C698.54 247.337504 691.812512 239.029984 691.812512 229.750016C691.812512 218.870016 700.487488 213.437504 711.687488 213.437504C722.567488 213.437504 731.187488 218.870016 731.187488 229.750016C731.187488 239.350016 724.46 247.337504 715.5 248.937504L715.5 257.937504L843.812512 272.312512L843.812512 263.062496C834.532512 261.462496 827.187488 253.4274880000001 827.187488 243.1874880000001C827.187488 232.627488 836.182496 223.375008 847.062496 223.375008C857.942496 223.375008 866.875008 232.627488 866.875008 243.1874880000001C866.555008 253.4274880000001 859.217504 261.7824960000001 849.937504 263.062496L849.937504 273.2499840000001L992 288L603.187488 267.812512C604.467488 271.332512 605.109984 274.9024960000001 605.750016 279.062496C606.070016 282.582496 606.375008 285.784992 606.375008 289.624992L710.062496 302.750016L606.375008 299.5L606.375008 301.124992C601.575008 328.9649920000001 565.437504 339.1874880000001 565.437504 339.1874880000001L562.812512 400.937504L601.624992 400.937504L632 334.062496L659.5 334.062496L560 544zM912 539.5C897.28 539.5 883.549984 536.94 870.750016 531.5C857.950016 525.74 846.724992 521.912512 837.124992 512.312512C827.524992 502.712512 819.502496 491.495008 814.062496 478.375008C808.622496 465.895008 806.062496 451.844992 806.062496 437.124992C806.062496 422.404992 808.622496 408.932512 814.062496 395.8125120000001C819.502496 383.012512 827.524992 371.842496 837.124992 362.562496C846.724992 352.6424960000001 857.950016 344.9400000000001 870.750016 339.5C883.549984 334.06 897.28 331.1874880000001 912 331.1874880000001C926.72 331.1874880000001 940.450016 334.06 953.249984 339.5C966.049984 344.9400000000001 977.267488 352.6424960000001 987.187488 362.562496C996.787488 371.842496 1004.184992 383.332512 1009.624992 395.8125120000001C1015.064992 408.932512 1017.937504 422.404992 1017.937504 437.124992C1017.937504 451.844992 1015.064992 465.895008 1009.624992 478.375008C1004.184992 491.495008 996.787488 502.712512 987.187488 512.312512C977.267488 522.232512 966.050016 525.74 953.249984 531.5C940.450016 536.94 926.72 539.5 912 539.5zM188.5 537.249984L288.3124992 327.062496L387.5 537.249984L360.3125120000001 537.249984L288.3124992 383.6874880000001L216 537.249984L188.5 537.249984zM419.687488 537.187488L419.687488 333.750016L444.3125120000001 333.750016L444.3125120000001 537.187488L419.687488 537.187488zM640.5 537.187488L640.5 518.750016L706.687488 518.750016L706.687488 333.750016L734 333.750016L734 518.750016L799.5 518.750016L799.5 537.187488L640.5 537.187488zM912 519.687488C922.88 519.687488 933.775008 517.730016 943.375008 513.249984C953.615008 508.769984 962.264992 503.36 969.624992 496C976.984992 488.32 982.715008 479.662496 986.875008 470.062496C991.035008 459.822496 992.937504 448.964992 992.937504 437.124992C992.937504 425.924992 991.035008 415.052512 986.875008 404.8125120000001C982.715008 394.892512 976.984992 385.915008 969.624992 378.875008C962.264992 371.1950080000001 953.615008 365.4100160000001 943.375008 361.2499840000001C933.775008 356.769984 922.88 354.875008 912 354.875008C900.8 354.875008 890.232512 356.769984 880.312512 361.2499840000001C870.392512 365.409984 861.415008 371.1950080000001 854.375008 378.875008C847.015008 385.915008 840.964992 394.892512 837.124992 404.8125120000001C832.964992 415.052512 830.750016 425.604992 830.750016 437.124992C830.750016 448.644992 832.964992 459.822496 837.124992 470.062496C840.964992 479.662496 847.015008 488.32 854.375008 496C862.055008 503.04 870.392512 508.770016 880.312512 513.249984C890.232512 517.730016 900.8 519.687488 912 519.687488zM99.5 490.875008L130.8750016 422.750016L68.1875008 422.750016L99.5 490.875008zM560 490.875008L591.062496 422.750016L561.875008 422.750016L560 467.812512L558 422.750016L528.624992 422.750016L560 490.875008z" />
    <glyph glyph-name="amazon-web-services--aws-"
      unicode="&#xF375;"
      horiz-adv-x="1024" d="M210.6875008 607.6875008C167.1675008 607.6875008 122.9850016 590.7175007999999 115.6249984 581.4375008C113.7049984 577.5975008 109.2524992 546.562496 119.8124992 546.562496C123.3324992 546.562496 124.9475008 545.950016 135.1875008 550.750016C173.5875008 565.7900159999999 197.9175008 565.437504 201.4375008 565.437504C244.6375008 569.5975040000001 269.59 540.1424959999999 265.75 502.062496L265.75 479.687488C229.27 488.327488 208.4275008 488.624992 198.1875008 488.624992C145.0675008 491.824992 96 463.817984 96 402.249984C96 334.730016 156.2649984 320.2900160000001 179.6249984 321.2499840000001C214.5049984 320.929984 247.7949984 336.6125120000001 269.8750016 363.812512C287.4750016 324.452512 298.68 327.062496 299 327.062496C302.2 327.062496 304.7524992 328.337504 307.3124992 329.937504L325.562496 342.750016C328.762496 344.669984 331.3049920000001 347.847488 331.624992 351.6874880000001C331.3049920000001 360.967488 314.6575008 375.367488 315.9375008 407.687488L315.9375008 507.5C317.8575008000001 535.02 308.9349984 561.950016 290.3750016 582.75C268.2950016 601.31 239.1675008 610.2475008 210.6875008 607.6875008zM830.624992 607.6875008C766.624992 607.6875008 729.852512 567.702496 730.812512 527.062496C730.812512 471.382496 787.1 453.732512 793.5 451.812512C847.58 434.852512 854.96 434.237504 870 421.437504C882.8 408.317504 881.192512 382.7000000000001 862.312512 371.5C856.872512 368.3 833.487488 354.244992 780.687488 365.124992C763.087488 368.644992 753.837504 372.7950080000001 739.437504 378.875008C735.597504 380.155008 726.624992 382.4024960000001 726.624992 370.562496L726.624992 354.875008C726.624992 347.515008 731.092512 340.824992 737.812512 337.624992C771.412512 320.664992 811.735008 320 820.375008 320C821.655008 320 895.235008 319.9609920000001 919.875008 369.624992C924.963008 379.8649920000001 938.14 417.250016 913.5 449.249984C893.02 473.249984 875.417504 475.812512 822.937504 491.812512C818.457504 493.092512 779.742496 503.050016 780.062496 530.249984C778.142496 565.1299839999999 825.517504 567.0150080000001 835.437504 566.375008C875.437504 567.0150080000001 895.244992 552.022496 906.124992 551.062496C910.924992 551.062496 913.187488 553.912512 913.187488 560.312512L913.187488 575.062496C913.507488 578.5824992 912.232512 582.0575008000001 910.312512 584.9375008C897.512512 601.5775008 848.544992 607.6875008 830.624992 607.6875008zM344.875008 599.6875008C341.355008 599.0475008000001 338.797504 595.52 339.437504 592C340.077504 587.8399999999999 340.712512 583.6600000000001 342.3125120000001 579.5L414 343.062496C415.6 335.382496 420.675008 327.032512 431.875008 328.312512L458.124992 328.312512C474.124992 326.712512 476.367488 342.087488 476.687488 343.6874880000001L523.750016 540.812512L571.437504 343.375008C571.757504 341.775008 574.007488 326.4 589.687488 328L616.249984 328C627.769984 326.7200000000001 633.212512 335.070016 634.812512 342.750016C715.452512 602.27 709.984992 584.6275008 710.624992 587.1875008C711.904992 600.6275008 704.217504 599.6949984 702.937504 599.3750016L674.437504 599.3750016C660.037504 600.9749984 657.202496 587.8249984 656.562496 584.6249984L603.437504 379.5L555.437504 584.6249984C553.197504 600.3050016 540.387488 599.6949984 537.187488 599.3750016L512.562496 599.3750016C498.482496 600.6549984000001 494.96 589.4250016 494 584.6249984L446.3125120000001 382.375008L395.124992 584.6249984C393.844992 591.0250016 389.667488 600.9675007999999 377.187488 599.6875008L344.875008 599.6875008zM208.75 451.5C231.79 451.18 251.6775008 447.7 265.4375008 444.5C265.4375008 428.5 266.02 419.524992 262.5 405.124992C258.02 389.764992 238.22 361.890016 191.5 361.2499840000001C164.62 359.970016 147.0250016 381.124992 148.6249984 405.124992C147.0250016 443.524992 186.67 453.1 208.75 451.5zM929.312512 255.937504C899.444512 255.5215040000001 864.189504 248.8304960000001 837.437504 230.062496C829.181504 224.334496 830.628512 216.381504 839.812512 217.437504C869.892512 221.053504 936.844512 229.1710080000001 948.812512 213.875008C960.812512 198.5790080000001 935.543008 135.474016 924.375008 107.249984C920.919008 98.834016 928.225504 95.350016 935.937504 101.750016C985.985504 143.670016 998.990016 231.5474880000001 988.750016 244.1874880000001C983.613984 250.507488 959.180512 256.3535040000001 929.312512 255.937504zM38.9375008 223.937504C31.95949984 222.977504 28.954 214.132992 36.25 207.124992C161.594 89.556992 327.220992 32 511.124992 32C642.292992 32 794.567488 74.797504 899.687488 155.437504C917.063488 168.845504 902.261504 188.936 884.437504 181C766.581504 129 638.574496 103.937504 522.062496 103.937504C349.390496 103.937504 182.232 139.987008 47 221.875008C44.04 223.667008 41.2635008 224.2575040000001 38.9375008 223.937504z" />
    <glyph glyph-name="bandcamp"
      unicode="&#xF2D5;"
      horiz-adv-x="1024" d="M512 800C282.624 800 96 613.376 96 384C96 154.624 282.624 -32 512 -32C741.376 -32 928 154.624 928 384C928 613.376 741.376 800 512 800zM512 736C706.08 736 864 578.0799999999999 864 384C864 189.92 706.08 32 512 32C317.92 32 160 189.92 160 384C160 578.0799999999999 317.92 736 512 736zM428.249984 512L300.25 256L595.750016 256L723.750016 512L428.249984 512zM467.750016 448L620.249984 448L556.249984 320L403.750016 320L467.750016 448z" />
    <glyph glyph-name="battle-net"
      unicode="&#xF835;"
      horiz-adv-x="1024" d="M850.5 437.124992C850.5 437.124992 924.250016 433.375008 924.250016 476.749984C924.250016 533.375008 826 584.375008 826 584.375008C826 584.375008 841.375008 617 851 635.249984C860.624992 653.5 887.624992 724.5 890 740.749984C893 761.249984 888.375008 767.624992 888.375008 767.624992C881.750016 723.875008 810.5 597.875008 804.750016 593.624992C735.250016 626.124992 639.750016 635.249984 639.750016 635.249984C639.750016 635.249984 546.250016 832 458.250016 832C371 832 371.5 663.5 371.5 663.5C371.5 663.5 346.875008 711.249984 315.875008 711.249984C270.624992 711.249984 255.750016 643 255.750016 568.875008C166.5 568.875008 91.375008 548.875008 84.624992 547C78 545.124992 56.875008 529.749984 66.375008 531.624992C86 537.875008 177.750016 552.124992 258 545.124992C262.5 474.749984 303.624992 383 303.624992 383C303.624992 383 215.375008 255.2499840000001 215.375008 164.124992C215.375008 140.124992 225.875008 96.249984 289.124992 96.249984C342.250016 96.249984 401.875008 128.124992 413 134.5C403.250016 120.624992 396 94 396 81.749984C396 71.749984 402 43.375008 442.875008 43.375008C495.375008 43.375008 554.124992 83.624992 554.124992 83.624992C554.124992 83.624992 609.624992 -8.375008 657 -50.5C669.750016 -61.875008 682 -64 682 -64C682 -64 634.875008 -18.750016 572.875008 98C630.5 133.5 690.5 217.5 690.5 217.5C690.5 217.5 697.624992 217.2499840000001 752.375008 217.2499840000001C838.124992 217.2499840000001 959.875008 235.2499840000001 959.875008 303.375008C960 373.624992 850.5 437.124992 850.5 437.124992zM860 479.5C860 454.624992 836.375008 454.875008 836.375008 454.875008L818.375008 453.749984C818.375008 453.749984 784.250016 471.624992 763.5 480.124992C763.5 480.124992 795.624992 529.5 803.124992 543.249984C808.750016 539.875008 860 507.875008 860 479.5zM501.124992 732.875008C541.5 732.875008 599 637.875008 599 637.875008C599 637.875008 509.250016 645.875008 435.375008 602.5C437.375008 670.875008 460.375008 732.875008 501.124992 732.875008zM341.5 655.875008C354.250016 655.875008 366.750016 640.249984 372 627.124992C372 618.375008 376.5 567.375008 376.5 567.375008L302.5 570.249984C302.5 636.875008 328.624992 655.875008 341.5 655.875008zM333.750016 192.7499840000001C293.250016 192.7499840000001 285 215.2499840000001 285 235.5C285 281.375008 321.624992 345.624992 321.624992 345.624992C321.624992 345.624992 362.750016 259.2499840000001 434.375008 222.875008C398.875008 202 369.5 192.7499840000001 333.750016 192.7499840000001zM465.124992 102.375008C436.750016 102.375008 433.250016 120.7499840000001 433.250016 125C433.250016 138.124992 443.624992 153.7499840000001 443.624992 153.7499840000001C443.624992 153.7499840000001 491.250016 185.875008 494.250016 189.375008L529.5 123.624992C529.5 123.624992 493.5 102.375008 465.124992 102.375008zM553.624992 138.124992C536.375008 168.2499840000001 523.624992 199.7499840000001 523.624992 199.7499840000001C523.624992 199.7499840000001 594.5 195.2499840000001 632.624992 234.5C608.875008 223.875008 571 210.375008 527 214.5C619 295.5 672.750016 354.2499840000001 718.124992 414.875008C714.250016 419.624992 693.5 434.124992 688.375008 436.5C661 403.5 554.375008 289.624992 455.624992 233.2499840000001C330.624992 301.375008 304.375008 501.749984 301.750016 543.375008L370 536.875008C370 536.875008 344.375008 491.375008 344.375008 457.875008C344.375008 424.5 348.375008 422.749984 348.375008 422.749984C348.375008 422.749984 347.5 481 383.5 526C411 380 439.624992 305.2499840000001 461.875008 260.624992C473.250016 265.375008 494.375008 274.7499840000001 494.375008 274.7499840000001C494.375008 274.7499840000001 431.375008 456.375008 434.875008 579.249984C463.5 594.5 505.875008 610.249984 553.624992 610.249984C679.375008 610.249984 780.5 556.249984 780.5 556.249984L741 501C741 501 705.750016 564.749984 655.875008 576.124992C682.124992 556.624992 711.624992 530.749984 726.875008 493.624992C622.624992 534.249984 496.875008 555.749984 456.5 560.5C453 545.624992 453.5 524.375008 453.5 524.375008C453.5 524.375008 622.124992 493.249984 744.875008 423.124992C744 269.624992 576.750016 151.7499840000001 553.624992 138.124992zM713.375008 252.875008C713.375008 252.875008 765.750016 321.5 764.875008 412.5C764.875008 412.5 849.5 360.124992 849.5 309C849.5 252 713.375008 252.875008 713.375008 252.875008z" />
    <glyph glyph-name="behance"
      unicode="&#xF1B4;"
      horiz-adv-x="1024" d="M32 680L32 88L318 88C344.5 88 527 93.375008 527 260C527 364.124992 455.375008 399.5 419 410C445.750016 422.624992 499 452.624992 499 533C499 577.749984 492.624992 680 310 680zM684 625L684 571L905 571L905 625zM162 579L284 579C295.5 579 373 585.124992 373 511C373 447.624992 317 441 294 441L162 441zM800 522C632.875008 522 598 376.875008 598 314C598 127.375008 751 106 800 106C932.124992 106 969.624992 191.5 985 239L889 239C885.250016 226.7499840000001 857.250016 187 804 187C714.750016 187 707 256.7499840000001 707 288L991 288C996.750016 396 949.5 522 800 522zM797 441C823.624992 441 845.124992 433.249984 858 419C870.875008 404.624992 880.375008 383.624992 883 356L707 356C707.5 363.624992 709.250016 372.375008 712 382C714.750016 391.875008 719 401.249984 726 410C733 418.624992 742.750016 426.124992 754 432C765.5 438 779.750016 441 797 441zM162 352L303 352C331 352 397 347.624992 397 267C397 188.875008 313.875008 189 301 189L162 189z" />
    <glyph glyph-name="behance-square"
      unicode="&#xF1B5;"
      horiz-adv-x="1024" d="M160 736L160 32L864 32L864 736L160 736zM224 672L800 672L800 96L224 96L224 672zM288 532.187488L288 256.624992L421.750016 256.624992C471.670016 256.944992 518.750016 280.937504 518.750016 336.937504C518.750016 371.817504 502.1 401.275008 468.5 410.875008C493.14 423.035008 505.937504 436.48 505.937504 464C505.937504 519.04 465.297504 532.187488 417.937504 532.187488L288 532.187488zM580.5 512L580.5 484.812512L691.812512 484.812512L691.812512 512L580.5 512zM348.8125120000001 489.937504L405.750016 489.937504C427.189984 489.937504 447.062496 483.842496 447.062496 458.562496C447.062496 435.202496 431.697504 425.624992 409.937504 425.624992L348.8125120000001 425.624992L348.8125120000001 489.937504zM638.750016 466.249984C578.269984 466.249984 536.937504 421.097504 536.937504 360.937504C536.937504 298.857504 575.710016 256 638.750016 256C686.429984 256 717.467488 277.4274880000001 732.187488 323.1874880000001L683.812512 323.1874880000001C678.372512 306.227488 657.264992 297.250016 640.624992 297.2499840000001C608.304992 297.2499840000001 591.687488 316.132512 591.687488 347.812512L735.375008 347.812512C735.695008 351.012512 736 354.855008 736 358.375008C736 417.255008 701.149984 466.249984 638.750016 466.249984zM636.812512 425.249984C664.652512 425.249984 678.384992 408.935008 680.624992 382.375008L591.687488 382.375008C593.287488 408.615008 610.572512 425.249984 636.812512 425.249984zM348.5 379.812512L414.750016 379.812512C441.310016 379.812512 458.249984 368.6674880000001 458.249984 340.1874880000001C458.249984 312.6674880000001 438.077504 304 413.437504 304L348.5 304L348.5 379.812512z" />
    <glyph glyph-name="bimobject"
      unicode="&#xF378;"
      horiz-adv-x="1024" d="M160 736L160 32L864 32L864 736L160 736zM224 672L800 672L800 96L224 96L224 672zM320 576L320 230L415.5 230L415.5 281.812512L416.875008 281.812512C428.875008 246.388512 455.958016 224 521.750016 224L547.124992 224C684.724992 224 701.750016 273.4580160000001 701.750016 347.2499840000001L701.750016 399.3125120000001C701.750016 473.136512 684.701984 522.250016 546.750016 522.249984L521 522.249984C476.264 522.249984 423.812992 509.908 417.124992 464.5L415.5 464.5L415.5 576L320 576zM481.624992 440.375008L553.124992 440.375008C605.220992 440.695008 610.249984 422.696512 610.249984 390.3125120000001L610.249984 356.2499840000001C610.249984 323.8659840000001 605.220992 305.812512 553.124992 305.812512L481.624992 305.812512C438.552992 305.812512 415.8125120000001 315.5455040000001 415.8125120000001 358.937504L415.8125120000001 387.3125120000001C415.8125120000001 431.056512 438.552992 440.375008 481.624992 440.375008z" />
    <glyph glyph-name="bitbucket"
      unicode="&#xF171;"
      horiz-adv-x="1024" d="M512 736C438.624992 736 365 726.5 307 711C278 703.249984 253.250016 695.124992 233 683C212.750016 670.875008 192 652.749984 192 624C192 616.875008 193.750016 609.875008 196 604C200.750016 579.624992 280.875008 162.375008 289 122C292.875008 102.749984 305.124992 88.5 319 78C332.875008 67.5 348.750016 59.624992 368 53C406.5 39.749984 456 32 512 32C568 32 617.250016 39.749984 656 53C675.375008 59.624992 692 67.249984 706 78C720 88.749984 733.124992 102.875008 736 123C736.624992 127.5 742.750016 166 752 214C761.250016 262 773.250016 322.124992 785 382C807 494.624992 825.5 591.375008 828 604C830.250016 609.875008 832 616.875008 832 624C832 652.749984 811.250016 670.875008 791 683C770.750016 695.124992 746 703.249984 717 711C659 726.5 585.375008 736 512 736zM512 672C580 672 650.250016 663.5 701 650C726.375008 643.249984 746.250016 635 758 628C761.250016 626 761.5 625.249984 763 624C761.5 622.749984 761.250016 622 758 620C746.250016 613 726.375008 604.749984 701 598C650.250016 584.5 580 576 512 576C444 576 373.750016 584.5 323 598C297.624992 604.749984 277.750016 613 266 620C262.750016 622 262.5 622.749984 261 624C262.5 625.249984 262.750016 626 266 628C277.750016 635 297.624992 643.249984 323 650C373.750016 663.5 444 672 512 672zM271 548C282.375008 544 294 540.5 307 537C365 521.5 438.624992 512 512 512C585.375008 512 659 521.5 717 537C730 540.5 741.624992 544 753 548C744.124992 504.5 737.250016 473 722 395C714.5 356.7499840000001 708.624992 322.5 702 287C701.624992 286.5 701.250016 286.875008 698 283C693.5 277.624992 685.250016 268.5 672 260C645.5 242.875008 597.624992 224 512 224C426.375008 224 377.624992 243 351 260C337.750016 268.5 330.5 276.624992 326 282C321.5 287.375008 321 288 321 288C299.250016 400.249984 283.875008 481.249984 271 548zM512 480C459.375008 480 416 436.624992 416 384C416 331.375008 459.375008 288 512 288C564.624992 288 608 331.375008 608 384C608 436.624992 564.624992 480 512 480zM512 416C530 416 544 402 544 384C544 366 530 352 512 352C494 352 480 366 480 384C480 402 494 416 512 416zM339 195C377.5 175.875008 432.375008 160 512 160C590.624992 160 645.624992 174.875008 684 194C679.124992 169.7499840000001 673.124992 141 672 133C671.375008 132.124992 669.624992 131 667 129C661.124992 124.5 650.750016 118 636 113C606.5 103 562.124992 96 512 96C461.875008 96 418.250016 102.875008 389 113C374.375008 118 363.124992 124.2499840000001 357 129C350.875008 133.7499840000001 350.624992 136 351 134C350 138.7499840000001 342.124992 179.2499840000001 339 195z" />
    <glyph glyph-name="bitcoin"
      unicode="&#xF379;"
      horiz-adv-x="1024" d="M384 800L384 704L256 704L256 64L384 64L384 -32L448 -32L448 64L512 64L512 -32L576 -32L576 64L624 64C720.875008 64 800 143.124992 800 240C800 306.624992 762.875008 365.124992 708 395C745 427.375008 768 475.249984 768 528C768 624.875008 688.875008 704 592 704L576 704L576 800L512 800L512 704L448 704L448 800zM320 640L592 640C654.250016 640 704 590.249984 704 528C704 465.749984 654.250016 416 592 416L320 416zM320 352L624 352C686.250016 352 736 302.2499840000001 736 240C736 177.7499840000001 686.250016 128 624 128L320 128z" />
    <glyph glyph-name="bity"
      unicode="&#xF37A;"
      horiz-adv-x="1024" d="M512 800C397.952 800 288.126 758.096 202.75 682C189.534 670.256 188.3810016 650.0590016 200.1249984 636.8750016C211.8689984 623.6910015999999 232.034 622.506 245.25 634.25C318.914 699.8820000000001 413.664 736 512 736C610.336 736 705.086016 699.8820000000001 778.750016 634.25C784.861984 628.81 792.448 626.1249984 800 626.1249984C808.8 626.1249984 817.539008 629.7404991999999 823.875008 636.8124992C835.619008 649.9964992 834.466016 670.256 821.249984 682C735.873984 758.096 626.048 800 512 800zM352 576C334.336 576 320 561.664 320 544L320 432C320 351.264 404.352 288 512 288C619.648 288 704 351.264 704 432L704 544C704 561.664 689.664 576 672 576C654.336 576 640 561.664 640 544L640 432C640 388.64 581.376 352 512 352C442.624 352 384 388.64 384 432L384 544C384 561.664 369.664 576 352 576zM138.4375008 479.562496C120.9015008 482.378496 104.598 470.532992 101.75 453.124992C97.942 429.892992 96 406.027488 96 382.1874880000001C96 187.4994880000001 224.2284992 17.606496 407.8125120000001 -30.937504C410.564512 -31.673504 413.312 -32 416 -32C430.176 -32 443.129504 -22.554016 446.937504 -8.249984C451.449504 8.869984 441.275488 26.425504 424.187488 30.937504C268.6355008 72.089504 160 216.491488 160 382.1874880000001C160 402.571488 161.6430016 422.972512 164.8750016 442.8125120000001C167.7550016 460.252512 155.8775008 476.714496 138.4375008 479.562496zM885.5 479.562496C868.06 476.714496 856.276992 460.252512 859.124992 442.8125120000001C862.388992 422.972512 864 402.571488 864 382.1874880000001C864 216.5234880000001 755.332512 72.088 599.812512 31C582.724512 26.4880000000001 572.550496 8.900512 577.062496 -8.187488C580.838496 -22.555488 593.824 -32 608 -32C610.688 -32 613.435488 -31.6415040000001 616.187488 -30.937504C799.771488 17.606496 928 187.4994880000001 928 382.1874880000001C928 406.027488 926.090016 429.892992 922.249984 453.124992C919.434016 470.532992 903.068 482.378496 885.5 479.562496zM512 256C494.336 256 480 241.664 480 224L480 128C480 110.336 494.336 96 512 96C529.664 96 544 110.336 544 128L544 224C544 241.664 529.664 256 512 256z" />
    <glyph glyph-name="font-awesome-black-tie"
      unicode="&#xF27E;"
      horiz-adv-x="1024" d="M160 736L160 32L864 32L864 736zM224 672L800 672L800 96L224 96zM384 608L474 492L384 244L512 128L640 244L550 492L640 608z" />
    <glyph glyph-name="blackberry"
      unicode="&#xF37B;"
      horiz-adv-x="1024" d="M512 800C282.624992 800 96 613.375008 96 384C96 154.624992 282.624992 -32 512 -32C741.375008 -32 928 154.624992 928 384C928 613.375008 741.375008 800 512 800zM512 736C706.750016 736 864 578.749984 864 384C864 189.2499840000001 706.750016 32 512 32C317.250016 32 160 189.2499840000001 160 384C160 578.749984 317.250016 736 512 736zM311 544L292 458L361 458C414.5 458 430 482.5 430 506C430 522.624992 419.750016 544 377 544zM488 544L469 458L538 458C591.5 458 607 482.5 607 506C607 522.624992 596.624992 544 554 544zM650 467L631 380L699 380C752.5 380 768 405.375008 768 429C768 445.624992 757.624992 467 715 467zM287 414L269 327L337 327C390.5 327 406 352.5 406 376C406 392.624992 395.750016 414 353 414zM464 414L446 327L514 327C567.5 327 583 352.5 583 376C583 392.624992 572.624992 414 530 414zM624 331L605 245L674 245C727.5 245 742 270.5 742 294C742 310.624992 732.624992 331 690 331zM439 278L420 192L489 192C542.5 192 557 217.5 557 241C557 257.624992 547.624992 278 505 278z" />
    <glyph glyph-name="blogger"
      unicode="&#xF37C;"
      horiz-adv-x="1024" d="M160 736L160 32L864 32L864 736L160 736zM224 672L800 672L800 96L224 96L224 672zM480 576C416 576 416.972512 575.375008 396.8125120000001 567.375008C359.372512 552.335008 332.475008 520.944992 322.875008 480.624992C321.275008 473.264992 320.632512 461.127488 320.3125120000001 391.687488C319.6724992 304.967488 320.310016 292.155008 325.750016 274.875008C339.189984 232.3150080000001 377.302496 200.977504 415.062496 193.937504C427.862496 191.697504 584.32 191.009984 600 193.2499840000001C628.16 197.090016 649.582496 208.317504 670.062496 229.437504C685.102496 244.477504 694.42 260.802496 700.5 282.562496C704.98 297.602496 704.670016 404.82 702.750016 412.5C701.149984 419.2200000000001 697.307488 425.94 692.187488 428.5C690.587488 429.14 680.990016 430.109984 670.750016 430.750016C653.470016 431.3899840000001 651.502496 431.667488 646.062496 435.187488C637.742496 439.987488 635.187488 445.787488 635.187488 460.187488C635.187488 488.347488 623.36 514.882496 600 538.562496C583.36 555.522496 565.127488 567.037504 543.687488 573.437504C538.887488 574.717504 518.08 576 480 576zM440.624992 480L514 480C527.6 480 538.624992 468.975008 538.624992 455.375008C538.624992 441.775008 527.6 430.749984 514 430.750016L440.624992 430.750016C427.024992 430.750016 416 441.775008 416 455.375008C416 468.975008 427.024992 480 440.624992 480zM440.624992 337.2499840000001L577.375008 337.2499840000001C590.975008 337.2499840000001 602 326.2249920000001 602 312.624992C602 299.024992 590.975008 288 577.375008 288L440.624992 288C427.024992 288 416 299.024992 416 312.624992C416 326.2249920000001 427.024992 337.250016 440.624992 337.2499840000001z" />
    <glyph glyph-name="blogger-b"
      unicode="&#xF37D;"
      horiz-adv-x="1024" d="M416 672C309.952 672 224 586.048 224 480L224 256C224 149.952 309.952 64 416 64L640 64C746.048 64 832 149.952 832 256L832 416C832 433.664 817.664 448 800 448L768 448C750.336 448 736 462.336 736 480C736 586.048 650.048 672 544 672L416 672zM416 512L544 512C561.6 512 576 497.6 576 480C576 462.4 561.6 448 544 448L416 448C398.4 448 384 462.4 384 480C384 497.6 398.4 512 416 512zM416 288L640 288C657.6 288 672 273.6 672 256C672 238.4 657.6 224 640 224L416 224C398.4 224 384 238.4 384 256C384 273.6 398.4 288 416 288z" />
    <glyph glyph-name="bluetooth"
      unicode="&#xF293;"
      horiz-adv-x="1024" d="M512 832C412.375008 832 321 808.249984 257 737C193 665.749984 160 553.124992 160 384C160 214.875008 193 102.249984 257 31C321 -40.250016 412.375008 -64 512 -64C611.624992 -64 703.124992 -40.250016 767 31C830.875008 102.249984 864 214.875008 864 384C864 553.124992 830.875008 665.749984 767 737C703.124992 808.249984 611.624992 832 512 832zM512 768C601.875008 768 670.250016 748.249984 719 694C767.750016 639.749984 800 544.624992 800 384C800 223.375008 767.750016 128.2499840000001 719 74C670.250016 19.749984 601.875008 0 512 0C422.124992 0 353.750016 19.749984 305 74C256.250016 128.2499840000001 224 223.375008 224 384C224 544.624992 256.250016 639.749984 305 694C353.750016 748.249984 422.124992 768 512 768zM480 672L480 462L407 535L361 489L466 384L361 279L407 233L480 306L480 96L531 134L659 230L689 253L558 384L689 515L659 538L531 634zM544 544L591 509L544 462zM544 306L591 259L544 224z" />
    <glyph glyph-name="bluetooth-2"
      unicode="&#xF294;"
      horiz-adv-x="1024" d="M448 781L448 462L311 599L265 553L434 384L265 215L311 169L448 306L448 -13L503 41L663 201L685 224L663 247L526 384L663 521L685 544L663 567L503 727zM512 626L594 544L512 462zM512 306L594 224L512 142z" />
    <glyph glyph-name="bootstrap"
      unicode="&#xF836;"
      horiz-adv-x="1024" d="M160 736L160 32L864 32L864 736L160 736zM224 672L800 672L800 96L224 96L224 672zM352 576L352 399.687488L352 192.312512C541.76 192.312512 579.730016 189.752512 615.249984 200.312512C636.049984 206.712512 693 227.1874880000001 693 299.1874880000001C693 331.1874880000001 683.407488 385.310016 620.687488 398.750016L620.687488 399.687488L608.875008 399.687488C640.875008 414.087488 661 441.250016 661 481.249984C661 491.490016 663.875008 576 551.875008 576L352 576zM416 512L544 512C592.288 512 597 484.696512 597 464.312512C597 414.584512 544.96 416 544 416L416 416L416 512zM416 352L568.312512 352C627.864512 352 629 314.352992 629 304.624992C629 254.704992 577.427488 256 571.187488 256L416 256L416 352z" />
    <glyph glyph-name="btc"
      unicode="&#xF15A;"
      horiz-adv-x="1024" d="M384 800L384 704L256 704L256 64L384 64L384 -32L448 -32L448 64L512 64L512 -32L576 -32L576 64L624 64C720.875008 64 800 143.124992 800 240C800 306.624992 762.875008 365.124992 708 395C745 427.375008 768 475.249984 768 528C768 624.875008 688.875008 704 592 704L576 704L576 800L512 800L512 704L448 704L448 800zM320 640L592 640C654.250016 640 704 590.249984 704 528C704 465.749984 654.250016 416 592 416L320 416zM320 352L624 352C686.250016 352 736 302.2499840000001 736 240C736 177.7499840000001 686.250016 128 624 128L320 128z" />
    <glyph glyph-name="buffer"
      unicode="&#xF837;"
      horiz-adv-x="1024" d="M512 736C507.008 736 502.013504 735.0449983999999 497.437504 733.1249984L102.25 550.875008C93.93 547.0350080000001 93.93 541.027488 102.25 537.187488L497.437504 354.875008C502.013504 352.955008 507.008 352 512 352C516.992 352 521.986496 352.955008 526.562496 354.875008L921.750016 537.187488C930.070016 541.027488 930.069984 547.0350080000001 921.750016 550.875008L526.562496 733.1249984C521.986496 735.0449983999999 516.992 736 512 736zM512 669.3750016L783.750016 544L512 418.624992L240.25 544L512 669.3750016zM154.8750016 433.687488L102.25 407.375008C93.93 403.215008 93.93 396.784992 102.25 392.624992L497.437504 195.124992C502.013504 193.044992 507.008 192 512 192C516.992 192 521.986496 193.044992 526.562496 195.124992L921.750016 392.624992C930.070016 396.784992 930.069984 403.215008 921.750016 407.375008L869.124992 433.687488L526.562496 262.5C521.986496 260.42 516.992 259.375008 512 259.375008C507.008 259.375008 502.013504 260.42 497.437504 262.5L154.8750016 433.687488zM154.8750016 273.6874880000001L102.25 247.375008C93.93 243.215008 93.93 236.784992 102.25 232.624992L497.437504 35.124992C502.013504 33.044992 507.008 32 512 32C516.992 32 521.986496 33.044992 526.562496 35.124992L921.750016 232.624992C930.070016 236.784992 930.069984 243.215008 921.750016 247.375008L869.124992 273.6874880000001L526.562496 102.5C521.986496 100.42 516.992 99.375008 512 99.375008C507.008 99.375008 502.013504 100.42 497.437504 102.5L154.8750016 273.6874880000001z" />
    <glyph glyph-name="b-rom-bel-experte-gmbh---co--kg-"
      unicode="&#xF37F;"
      horiz-adv-x="1024" d="M160 736L160 544L352 544L352 736L160 736zM416 736L416 544L608 544L608 736L416 736zM672 736L672 544L864 544L864 736L672 736zM224 672L288 672L288 608L224 608L224 672zM480 672L544 672L544 608L480 608L480 672zM736 672L800 672L800 608L736 608L736 672zM160 480L160 288L352 288L352 480L160 480zM416 480L416 288L608 288L608 480L416 480zM672 480L672 288L864 288L864 480L672 480zM224 416L288 416L288 352L224 352L224 416zM480 416L544 416L544 352L480 352L480 416zM736 416L800 416L800 352L736 352L736 416zM160 224L160 32L352 32L352 224L160 224zM416 224L416 32L608 32L608 224L416 224zM672 224L672 32L864 32L864 224L672 224zM224 160L288 160L288 96L224 96L224 160zM480 160L544 160L544 96L480 96L480 160z" />
    <glyph glyph-name="buysellads"
      unicode="&#xF20D;"
      horiz-adv-x="1024" d="M358 704L351 682L162 106L148 64L383 64L392 71L580 224L617 88L624 64L877 64L862 106L668 682L660 704zM405 640L614 640L788 128L672 128L546 593L540 617L485 617L478 594L393 297L381 256L518 256L361 128L236 128zM511 477L554 320L466 320z" />
    <glyph glyph-name="canadian-maple-leaf"
      unicode="&#xF785;"
      horiz-adv-x="1024" d="M512 799L489 776L419 705L349 683L320 674L327 645L365 491L310 529L288 544L217 473L123 431L95 418L106 390L142 299L132 223L128 191L352 163L352 96L480 96L480 -32L544 -32L544 96L672 96L672 163L896 191L892 223L882 299L918 390L929 418L901 431L807 473L736 544L714 529L659 491L697 645L704 674L675 683L605 705L535 776zM512 708L572 648L579 646L628 631L577 424L557 341L626 390L728 461L765 423L770 419L775 416L847 384L820 315L817 307L818 299L824 247L636 224L608 220L608 160L416 160L416 220L388 224L200 247L206 299L207 307L204 315L177 384L249 416L254 419L259 423L296 461L398 390L467 341L447 424L396 631L445 646L452 648z" />
    </font>
</defs>
</svg>
